<svg xmlns="http://www.w3.org/2000/svg">
<defs>
<font id="LHLamarPro-Regular" horiz-adv-x="0" >
  <font-face 
    font-family="LH Lamar Pro"
    font-weight="400"
    font-stretch="normal"
    units-per-em="1000"
    panose-1="1 0 0 0 0 0 0 0 0 0"
    ascent="764"
    descent="-236"
    bbox="-192 -497 1333 1200"
    underline-thickness="50"
    underline-position="-50"
    unicode-range="U+000D-FEFF"
  />
<missing-glyph horiz-adv-x="598" 
d="M277 71q-15 0 -15 19t16 19q14 0 14 -19t-15 -19zM358 208q-11 0 -11 19t11 19q12 0 12 -18q0 -20 -12 -20zM136 359q0 13 12 13q11 0 11 -13q0 -12 -10 -12q-13 0 -13 12zM307 223v8q0 14 11 14t11 -17q0 -20 -12 -20q-10 0 -10 15zM400 586q-12 0 -12 14q0 13 12 13
q11 0 11 -13q0 -14 -11 -14zM475 338q-11 0 -11 14q0 13 11 13q10 0 10 -14q0 -13 -10 -13zM212 349h-11q-10 0 -10 12q0 11 10 11t11 -10v-13zM264 223v8q0 14 12 14q11 0 11 -17q0 -20 -11 -20q-12 0 -12 15zM348 95v-9q0 -14 -13 -14q-15 0 -15 17q0 20 15 20
q13 0 13 -14zM49 0v700h500v-700h-500zM486 639h11v11h-11v-11zM467 639h11v11h-11v-11zM430 578v-10q21 0 24 17h27q16 0 16 18v27h-11v-23q0 -10 -8 -10h-24v33h-11v-38q0 -14 -13 -14zM472 506h10v11h-10v-11zM118 639h11v11h-11v-11zM104 578v-10q21 0 24 17h253
q6 -9 19 -9q22 0 22 24q0 9 -6.5 16t-15.5 7q-23 0 -23 -25l-11 -1h-197q3 3 3 11v22h-11v-22q0 -11 -8 -11h-24v33h-11v-38q0 -14 -14 -14zM161 563h11v11h-11v-11zM141 563h12v11h-12v-11zM102 444v-10q22 0 24 17h371v11h-28q-3 4 -3 12q0 13 11 13q7 0 10 -7l10 4
q-7 13 -20 13q-10 0 -16.5 -7t-6.5 -17q0 -8 3 -11h-289q2 6 2 12v23h-11v-23q0 -12 -8 -12h-24v35h-11v-39q0 -14 -14 -14zM426 203v6h-4q-6 0 -6 9v27h10v6h-10v12l-6 -3v-9h-7v-6h7v-27q0 -16 10 -16q5 0 6 1zM378 336h79q6 -8 18 -8q22 0 22 23q0 10 -6 16.5t-16 6.5
t-17 -6t-7 -16l1 -3h-26q0 33 -37 33v-10q26 0 26 -23h-37v-13zM257 183h7v26q3 -7 13 -7q17 0 17 26q0 24 -16 24q-10 0 -15 -9v8h-6v-68zM201 329v-9q21 0 22 16h146v13h-28q-3 3 -3 10q0 14 11 14q6 0 10 -7l9 4q-4 13 -19 13q-10 0 -16.5 -7t-6.5 -17q0 -6 2 -10h-105

<glyph glyph-name="alefmaddaabovearabic" unicode="&#x627;&#x653;" horiz-adv-x="253" 
d="M127 0q-35 0 -45 18t-10 56q0 3 4.5 50t9 124t4.5 153q0 27 -6.5 131t-6.5 110q0 59 48 59q18 0 29 -4t15 -13t5 -16t1 -21q0 -5 -2.5 -54t-4.5 -116t-2 -116q0 -64 4 -138t7.5 -122.5t3.5 -52.5q0 -22 -10.5 -35t-43.5 -13zM37 804q-22 0 -22 29q0 12 23.5 27.5
t57.5 15.5q22 0 43 -12t30 -12q3 0 19.5 5t22.5 5q9 0 17 -8.5t8 -25.5q0 -19 -28 -31.5t-52 -12.5q-20 0 -36 16.5t-32 16.5q-9 0 -42 -12q-1 0 -4 -0.5t-5 -0.5z" />
    <glyph glyph-name="alefhamzaabovearabic" unicode="&#x627;&#x654;" horiz-adv-x="253" 
d="M127 0q-35 0 -45 18t-10 56q0 3 4.5 50t9 124t4.5 153q0 27 -6.5 131t-6.5 110q0 59 48 59q18 0 29 -4t15 -13t5 -16t1 -21q0 -5 -2.5 -54t-4.5 -116t-2 -116q0 -64 4 -138t7.5 -122.5t3.5 -52.5q0 -22 -10.5 -35t-43.5 -13zM204 838h22q13 0 13 -23q0 -28 -39 -28
q-46 0 -81 -2t-53 -4t-24 -2q-13 0 -13 21q0 18 12.5 28.5t52.5 10.5q-38 26 -38 69q0 42 28.5 62.5t66.5 20.5q80 0 80 -43q0 -20 -16 -20q-4 0 -20 4t-31 4q-18 0 -33.5 -9t-15.5 -33q0 -56 89 -56z" />
    <glyph glyph-name="wawhamzaabovearabic" unicode="&#x648;&#x654;" horiz-adv-x="508" 
d="M143 200q0 -50 27.5 -81.5t86.5 -31.5q47 0 75 29t28 89q0 57 -30 91t-74 34q-51 0 -82 -36.5t-31 -93.5zM49 -182q0 58 76 58q100 0 167.5 35t67.5 91q0 25 -14 25q-2 0 -32.5 -12.5t-67.5 -12.5q-90 0 -139.5 51.5t-49.5 131.5q0 100 58 161t142 61q202 0 202 -307
q0 -162 -88 -250.5t-236 -88.5q-48 0 -67 14.5t-19 42.5zM327 544h22q13 0 13 -23q0 -28 -39 -28q-46 0 -81 -2t-53 -4t-24 -2q-13 0 -13 21q0 18 12.5 28.5t52.5 10.5q-38 26 -38 69q0 42 28.5 62.5t66.5 20.5q80 0 80 -43q0 -20 -16 -20q-4 0 -20 4t-31 4q-18 0 -33.5 -9
t-15.5 -33q0 -56 89 -56z" />
    <glyph glyph-name="alefhamzabelowarabic" unicode="&#x627;&#x655;" horiz-adv-x="253" 
d="M127 0q-35 0 -45 18t-10 56q0 3 4.5 50t9 124t4.5 153q0 27 -6.5 131t-6.5 110q0 59 48 59q18 0 29 -4t15 -13t5 -16t1 -21q0 -5 -2.5 -54t-4.5 -116t-2 -116q0 -64 4 -138t7.5 -122.5t3.5 -52.5q0 -22 -10.5 -35t-43.5 -13zM204 -231h22q13 0 13 -23q0 -28 -39 -28
q-46 0 -81 -2t-53 -4t-24 -2q-13 0 -13 21q0 18 12.5 28.5t52.5 10.5q-38 26 -38 69q0 42 28.5 62.5t66.5 20.5q80 0 80 -43q0 -20 -16 -20q-4 0 -20 4t-31 4q-18 0 -33.5 -9t-15.5 -33q0 -56 89 -56z" />
    <glyph glyph-name="yehhamzaabovearabic" unicode="&#x64a;&#x654;" horiz-adv-x="853" 
d="M507 71q-28 19 -45 71q-14 42 -14 76t14 76q12 36 37 64q23 24 63 42q38 15 87 15q36 0 55 -5q26 -3 50 -14q25 -12 38 -26q12 -11 12 -34q0 -15 -2 -17q-2 -5 -8 -13q-5 -5 -10 -6q-3 0 -6.5 -1t-5.5 -1q-12 0 -21 3q-4 2 -11.5 4t-11.5 3q-9 3 -28 5q-13 4 -44 4
q-17 0 -39 -5q-22 -6 -35 -21q-17 -13 -28 -33q-10 -20 -10 -52q0 -31 11 -52q13 -22 33 -39q15 -14 44 -23q2 -1 17 -5t29.5 -8.5t31.5 -12.5t32 -20t23 -26l9 -22q10 -30 10 -61q0 -107 -124 -181t-328 -74q-332 0 -332 219q0 132 65 132q21 0 39.5 -14t18.5 -38
q0 -15 -13 -45.5t-13 -54.5q0 -53 65.5 -83.5t196.5 -30.5q90 0 171 17.5t134.5 53.5t53.5 82q0 52 -66 86q-28 16 -62 28q-16 7 -33.5 13.5t-28 11t-21.5 12.5zM135 170h22q13 0 13 -23q0 -28 -39 -28q-46 0 -81 -2t-53 -4t-24 -2q-13 0 -13 21q0 18 12.5 28.5t52.5 10.5
q-38 26 -38 69q0 42 28.5 62.5t66.5 20.5q80 0 80 -43q0 -20 -16 -20q-4 0 -20 4t-31 4q-18 0 -33.5 -9t-15.5 -33q0 -56 89 -56z" />
    <glyph glyph-name="shaddadammatanarabic" unicode="&#x64c;&#x651;" arabic-form="isolated" 
d="M164 879q-1 -3 -1 -15q0 -27 23 -27q25 0 25 52q0 19 1.5 29t8.5 18t20 8q6 0 10.5 -1t7.5 -3.5t5.5 -4.5t4 -7t2 -7.5t1 -9t0.5 -9v-10v-9.5q0 -99 -71 -99q-24 0 -45 10l-21 10q-9 0 -31.5 -10t-38.5 -10q-30 0 -50 21.5t-20 60.5q0 10 -1 24t-1 18q0 20 8 27.5t27 7.5
q30 0 30 -40q0 -8 -1 -21t-1 -18q0 -27 24 -27q11 0 17.5 7.5t6.5 19.5q0 5 -2.5 17.5t-2.5 20.5q0 30 37 30q19 0 23.5 -11.5t4.5 -41.5zM72 975v10q0 21 -17 21q-8 0 -25 -6t-20 -6q-17 0 -17 32q0 14 6 20q3 3 13 9q35 17 58 17q15 0 22.5 -6t7.5 -11l1 -9
q2 -16 3.5 -21.5t8 -10.5t20.5 -5q19 0 26 7q-30 24 -30 55q0 32 22 54t53 22t53 -19t22 -54q0 -52 -50 -82.5t-105 -30.5h-13q-39 0 -39 14zM173 1069q0 -11 8.5 -21t22.5 -10q12 0 21.5 9t9.5 24q0 18 -11 24.5t-20 6.5q-13 0 -22 -8.5t-9 -24.5z" />
    <glyph glyph-name="shaddakasratanarabic" unicode="&#x64d;&#x651;" arabic-form="isolated" 
d="M164 1135q-1 -3 -1 -15q0 -27 23 -27q25 0 25 52q0 19 1.5 29t8.5 18t20 8q6 0 10.5 -1t7.5 -3.5t5.5 -4.5t4 -7t2 -7.5t1 -9t0.5 -9v-10v-9.5q0 -99 -71 -99q-24 0 -45 10l-21 10q-9 0 -31.5 -10t-38.5 -10q-30 0 -50 21.5t-20 60.5q0 10 -1 24t-1 18q0 20 8 27.5
t27 7.5q30 0 30 -40q0 -8 -1 -21t-1 -18q0 -27 24 -27q11 0 17.5 7.5t6.5 19.5q0 5 -2.5 17.5t-2.5 20.5q0 30 37 30q19 0 23.5 -11.5t4.5 -41.5zM64 786h-4q-4 -1 -6.5 -1t-6.5 1.5t-7 4t-5 8.5t-2 15q0 10 14 20t38.5 19t47 15.5t49 13.5t35.5 10t15 3q8 0 16.5 -8
t8.5 -26q0 -11 -7 -18.5t-20 -12t-24.5 -7.5t-28.5 -5.5t-24 -4.5q-42 -11 -89 -27zM64 915l-4 -1h-6.5t-6.5 1.5t-7 4t-5 8.5t-2 15q0 10 14 20t38.5 19t47 15.5t49 13.5t35.5 10t15 3q8 0 16.5 -8t8.5 -26q0 -11 -7 -18.5t-20 -12t-24.5 -7.5t-28.5 -5.5t-24 -4.5
q-42 -11 -89 -27z" />
    <glyph glyph-name="shaddafathaarabic" unicode="&#x64e;&#x651;" arabic-form="isolated" 
d="M164 879q-1 -3 -1 -15q0 -27 23 -27q25 0 25 52q0 19 1.5 29t8.5 18t20 8q6 0 10.5 -1t7.5 -3.5t5.5 -4.5t4 -7t2 -7.5t1 -9t0.5 -9v-10v-9.5q0 -99 -71 -99q-24 0 -45 10l-21 10q-9 0 -31.5 -10t-38.5 -10q-30 0 -50 21.5t-20 60.5q0 10 -1 24t-1 18q0 20 8 27.5t27 7.5
q30 0 30 -40q0 -8 -1 -21t-1 -18q0 -27 24 -27q11 0 17.5 7.5t6.5 19.5q0 5 -2.5 17.5t-2.5 20.5q0 30 37 30q19 0 23.5 -11.5t4.5 -41.5zM153 986q-41 -9 -88 -24q-2 -1 -10 -1q-22 0 -22 26q0 10 6 16.5t22.5 13.5t34 12t54 16.5t69.5 22.5q3 0 6 0.5t5 1t3 0.5
q26 0 26 -34q0 -9 -6.5 -16.5t-19.5 -12.5t-24.5 -8t-29.5 -7t-26 -6z" />
    <glyph glyph-name="shaddadammaarabic" unicode="&#x64f;&#x651;" arabic-form="isolated" 
d="M164 879q-1 -3 -1 -15q0 -27 23 -27q25 0 25 52q0 19 1.5 29t8.5 18t20 8q6 0 10.5 -1t7.5 -3.5t5.5 -4.5t4 -7t2 -7.5t1 -9t0.5 -9v-10v-9.5q0 -99 -71 -99q-24 0 -45 10l-21 10q-9 0 -31.5 -10t-38.5 -10q-30 0 -50 21.5t-20 60.5q0 10 -1 24t-1 18q0 20 8 27.5t27 7.5
q30 0 30 -40q0 -8 -1 -21t-1 -18q0 -27 24 -27q11 0 17.5 7.5t6.5 19.5q0 5 -2.5 17.5t-2.5 20.5q0 30 37 30q19 0 23.5 -11.5t4.5 -41.5zM130 1016q-30 24 -30 55q0 32 22 54t53 22t53 -19t22 -54q0 -52 -50 -82.5t-105 -30.5q-102 0 -102 40q0 14 8 21t19 7q14 0 42 -10
t42 -10q19 0 26 7zM144 1069q0 -11 8.5 -21t22.5 -10q13 0 22 9t9 24q0 18 -11 24.5t-20 6.5q-13 0 -22 -8.5t-9 -24.5z" />
    <glyph glyph-name="shaddakasraarabic" unicode="&#x650;&#x651;" arabic-form="isolated" 
d="M164 1005q-1 -3 -1 -15q0 -27 23 -27q25 0 25 52q0 19 1.5 29t8.5 18t20 8q6 0 10.5 -1t7.5 -3.5t5.5 -4.5t4 -7t2 -7.5t1 -9t0.5 -9v-10v-9.5q0 -99 -71 -99q-24 0 -45 10l-21 10q-9 0 -31.5 -10t-38.5 -10q-30 0 -50 21.5t-20 60.5q0 11 -1 24.5t-1 17.5q0 20 8 27.5
t27 7.5q30 0 30 -40q0 -8 -1 -21t-1 -18q0 -27 24 -27q11 0 17.5 7.5t6.5 19.5q0 5 -2.5 17.5t-2.5 20.5q0 30 37 30q19 0 23.5 -11.5t4.5 -41.5zM153 809q-41 -9 -88 -24q-2 -1 -10 -1q-22 0 -22 26q0 10 6 16.5t22.5 13.5t34 12t54 16.5t69.5 22.5l14 2q26 0 26 -34
q0 -9 -6.5 -16.5t-19.5 -12.5t-24.5 -8t-29.5 -7t-26 -6z" />
    <glyph glyph-name="aleffathatanfinalarabic" unicode="&#xfe8e;&#x64b;" horiz-adv-x="204" arabic-form="final" 
d="M204 113v-91q-75 16 -128 61t-53 100q0 100 -6 198t-12 159t-6 69q0 102 66 102q68 0 68 -85q0 -40 -18 -144t-18 -202q0 -13 -1 -35.5t-0.5 -30.5t3 -23t9 -21.5t19 -17t31 -19.5t46.5 -20zM-25 784q-22 0 -22 29q0 10 14 20t38.5 19t47 15.5t49 13.5t35.5 10t15 3
q8 0 16.5 -8t8.5 -26q0 -11 -7 -18.5t-20 -12t-24.5 -7.5t-28.5 -5.5t-24 -4.5q-42 -11 -89 -27q-1 0 -4 -0.5t-5 -0.5zM-25 913q-22 0 -22 29q0 10 14 20t38.5 19t47 15.5t49 13.5t35.5 10t15 3q8 0 16.5 -8t8.5 -26q0 -11 -7 -18.5t-20 -12t-24.5 -7.5t-28.5 -5.5
t-24 -4.5q-42 -11 -89 -27q-1 0 -4 -0.5t-5 -0.5z" />
    <glyph glyph-name="aleffathatanarabic" unicode="&#x627;&#x64b;" horiz-adv-x="253" arabic-form="isolated" 
d="M127 0q-35 0 -45 18t-10 56q0 3 4.5 50t9 124t4.5 153q0 27 -6.5 131t-6.5 110q0 59 48 59q18 0 29 -4t15 -13t5 -16t1 -21q0 -5 -2.5 -54t-4.5 -116t-2 -116q0 -64 4 -138t7.5 -122.5t3.5 -52.5q0 -22 -10.5 -35t-43.5 -13zM35 784q-22 0 -22 29q0 10 14 20t38.5 19
t47 15.5t49 13.5t35.5 10t15 3q8 0 16.5 -8t8.5 -26q0 -11 -7 -18.5t-20 -12t-24.5 -7.5t-28.5 -5.5t-24 -4.5q-42 -11 -89 -27q-1 0 -4 -0.5t-5 -0.5zM35 913q-22 0 -22 29q0 10 14 20t38.5 19t47 15.5t49 13.5t35.5 10t15 3q8 0 16.5 -8t8.5 -26q0 -11 -7 -18.5t-20 -12
t-24.5 -7.5t-28.5 -5.5t-24 -4.5q-42 -11 -89 -27q-1 0 -4 -0.5t-5 -0.5z" />
    <glyph glyph-name="allahisolated" unicode="&#xfedf;&#xfee0;&#xfeea;" horiz-adv-x="1177" arabic-form="isolated" 
d="M445 113v-91q-27 4 -75 26t-65 23q-4 0 -42.5 -15t-90.5 -15q-23 0 -48.5 6t-55 21t-49 47.5t-19.5 77.5q0 60 30.5 102.5t73.5 62t86 30.5t73.5 17t30.5 13q0 8 -8 53v2q0 27 48 27q58 0 58 -32q-14 -135 -14 -209q-1 -45 12.5 -79.5t27.5 -48t27 -18.5zM84 203
q0 -42 31 -60.5t71 -18.5q62 0 86.5 24.5t24.5 84.5q0 47 -15.5 68.5t-52.5 21.5q-60 0 -102.5 -35t-42.5 -85zM374 96q3 2 11 10t10.5 9t10.5 4t17 1t22 -7q79 -30 140 -30q44 0 66 11t34.5 52t12.5 123q0 81 -5 168t-10.5 143t-5.5 62q0 64 57 64q61 0 61 -76
q0 -12 -5 -182.5t-5 -222.5q0 -119 -35.5 -172t-140.5 -53q-38 0 -83 5q-33 5 -81 17q-63 17 -89 35q-4 4 -4 9q0 8 22 30zM770 879l-1 -15q0 -27 23 -27q25 0 25 52q0 19 1.5 29t8.5 18t20 8q20 0 25.5 -12.5t5.5 -35.5v-5v-8q0 -99 -71 -99q-24 0 -45 10l-21 10
q-9 0 -31.5 -10t-38.5 -10q-30 0 -50 21.5t-20 60.5q0 10 -1 24t-1 18q0 20 8 27.5t27 7.5q30 0 30 -40q0 -8 -1 -21t-1 -18q0 -27 24 -27q11 0 17.5 7.5t6.5 19.5q0 5 -2.5 17.5t-2.5 20.5q0 30 37 30q19 0 23.5 -11.5t4.5 -41.5zM712 1085v31l3 14q5 17 25 17q7 0 15 -2
q20 -6 20 -48q0 -28 -6 -68q-3 -30 -3 -44q-2 -8 -3.5 -12.5t-6 -8t-11.5 -3.5q-9 0 -12 2q-14 4 -18 10.5t-4 30.5q0 7 0.5 33t0.5 48zM707 96q3 2 11 10t10.5 9t10.5 4t17 1t22 -7q79 -30 140 -30q44 0 66 11t34.5 52t12.5 123q0 81 -5.5 168t-10.5 143t-5 62q0 64 57 64
q61 0 61 -76q0 -12 -5 -182.5t-5 -222.5q0 -119 -35.5 -172t-140.5 -53q-38 0 -83 5q-33 5 -81 17q-63 17 -89 35q-4 4 -4 9q0 8 22 30z" />
    <glyph glyph-name="lamalefmaddaabovearabic" unicode="&#xfedf;&#xfe82;" horiz-adv-x="696" arabic-form="isolated" 
d="M250 595q-22 0 -22 29q0 12 23.5 27.5t57.5 15.5q22 0 43 -12t30 -12q3 0 19.5 5t22.5 5q9 0 17 -8.5t8 -25.5q0 -19 -28 -31.5t-52 -12.5q-19 0 -35 16.5t-33 16.5q-9 0 -42 -12q-1 0 -4 -0.5t-5 -0.5zM387 160v-85q101 0 135 27.5t34 116.5q0 102 -12.5 247.5
t-12.5 171.5q0 67 55 67q38 0 49.5 -17t11.5 -50q0 -13 -2.5 -228.5t-2.5 -268.5q0 -29 -8.5 -52.5t-32.5 -49.5t-78.5 -40.5t-135.5 -14.5q-338 0 -338 78q0 40 40 40q6 0 36.5 -4.5t79 -11t90.5 -9.5q2 21 2 118q0 29 -5 132.5t-5 108.5q0 28 10 42t41 14q34 0 45 -11.5
t11 -35.5q0 -4 -2 -53t-3.5 -116.5t-1.5 -115.5z" />
    <glyph glyph-name="lamalefmaddaabovefinalarabic" unicode="&#xfee0;&#xfe82;" horiz-adv-x="640" arabic-form="final" 
d="M387 160v-85q101 0 135 27.5t34 116.5q0 102 -12.5 247.5t-12.5 171.5q0 67 55 67q38 0 49.5 -17t11.5 -50q0 -13 -2.5 -228.5t-2.5 -268.5q0 -29 -8.5 -52.5t-32.5 -49.5t-78.5 -40.5t-135.5 -14.5q-338 0 -338 78q0 40 40 40q6 0 36.5 -4.5t79 -11t90.5 -9.5
q2 21 2 118q0 29 -5 132.5t-5 108.5q0 28 10 42t41 14q34 0 45 -11.5t11 -35.5q0 -4 -2 -53t-3.5 -116.5t-1.5 -115.5zM250 595q-22 0 -22 29q0 12 23.5 27.5t57.5 15.5q22 0 43 -12t30 -12q3 0 19.5 5t22.5 5q9 0 17 -8.5t8 -25.5q0 -19 -28 -31.5t-52 -12.5
q-19 0 -35 16.5t-33 16.5q-9 0 -42 -12q-1 0 -4 -0.5t-5 -0.5z" />
    <glyph glyph-name="lamalefhamzaabovearabic" unicode="&#xfedf;&#xfe84;" horiz-adv-x="696" arabic-form="isolated" 
d="M408 629h22q13 0 13 -23q0 -28 -39 -28q-46 0 -81 -2t-53 -4t-24 -2q-13 0 -13 21q0 18 12.5 28.5t52.5 10.5q-38 26 -38 69q0 42 28.5 62.5t66.5 20.5q80 0 80 -43q0 -20 -16 -20q-4 0 -20 4t-31 4q-18 0 -33.5 -9t-15.5 -33q0 -56 89 -56zM387 160v-85q101 0 135 27.5
t34 116.5q0 102 -12.5 247.5t-12.5 171.5q0 67 55 67q38 0 49.5 -17t11.5 -50q0 -13 -2.5 -228.5t-2.5 -268.5q0 -29 -8.5 -52.5t-32.5 -49.5t-78.5 -40.5t-135.5 -14.5q-338 0 -338 78q0 40 40 40q6 0 36.5 -4.5t79 -11t90.5 -9.5q2 21 2 118q0 29 -5 132.5t-5 108.5
q0 28 10 42t41 14q34 0 45 -11.5t11 -35.5q0 -4 -2 -53t-3.5 -116.5t-1.5 -115.5z" />
    <glyph glyph-name="lamalefhamzaabovefinalarabic" unicode="&#xfee0;&#xfe84;" horiz-adv-x="640" arabic-form="final" 
d="M408 629h22q13 0 13 -23q0 -28 -39 -28q-46 0 -81 -2t-53 -4t-24 -2q-13 0 -13 21q0 18 12.5 28.5t52.5 10.5q-38 26 -38 69q0 42 28.5 62.5t66.5 20.5q80 0 80 -43q0 -20 -16 -20q-4 0 -20 4t-31 4q-18 0 -33.5 -9t-15.5 -33q0 -56 89 -56zM387 160v-85q101 0 135 27.5
t34 116.5q0 102 -12.5 247.5t-12.5 171.5q0 67 55 67q38 0 49.5 -17t11.5 -50q0 -13 -2.5 -228.5t-2.5 -268.5q0 -29 -8.5 -52.5t-32.5 -49.5t-78.5 -40.5t-135.5 -14.5q-338 0 -338 78q0 40 40 40q6 0 36.5 -4.5t79 -11t90.5 -9.5q2 21 2 118q0 29 -5 132.5t-5 108.5
q0 28 10 42t41 14q34 0 45 -11.5t11 -35.5q0 -4 -2 -53t-3.5 -116.5t-1.5 -115.5z" />
    <glyph glyph-name="lamalefhamzabelowarabic" unicode="&#xfedf;&#xfe88;" horiz-adv-x="696" arabic-form="isolated" 
d="M408 -246h22q13 0 13 -23q0 -28 -39 -28q-46 0 -81 -2t-53 -4t-24 -2q-13 0 -13 21q0 18 12.5 28.5t52.5 10.5q-38 26 -38 69q0 42 28.5 62.5t66.5 20.5q80 0 80 -43q0 -20 -16 -20q-4 0 -20 4t-31 4q-18 0 -33.5 -9t-15.5 -33q0 -56 89 -56zM387 160v-85q101 0 135 27.5
t34 116.5q0 102 -12.5 247.5t-12.5 171.5q0 67 55 67q38 0 49.5 -17t11.5 -50q0 -13 -2.5 -228.5t-2.5 -268.5q0 -29 -8.5 -52.5t-32.5 -49.5t-78.5 -40.5t-135.5 -14.5q-338 0 -338 78q0 40 40 40q6 0 36.5 -4.5t79 -11t90.5 -9.5q2 21 2 118q0 29 -5 132.5t-5 108.5
q0 28 10 42t41 14q34 0 45 -11.5t11 -35.5q0 -4 -2 -53t-3.5 -116.5t-1.5 -115.5z" />
    <glyph glyph-name="lamalefhamzabelowfinalarabic" unicode="&#xfee0;&#xfe88;" horiz-adv-x="640" arabic-form="final" 
d="M408 -246h22q13 0 13 -23q0 -28 -39 -28q-46 0 -81 -2t-53 -4t-24 -2q-13 0 -13 21q0 18 12.5 28.5t52.5 10.5q-38 26 -38 69q0 42 28.5 62.5t66.5 20.5q80 0 80 -43q0 -20 -16 -20q-4 0 -20 4t-31 4q-18 0 -33.5 -9t-15.5 -33q0 -56 89 -56zM387 160v-85q101 0 135 27.5
t34 116.5q0 102 -12.5 247.5t-12.5 171.5q0 67 55 67q38 0 49.5 -17t11.5 -50q0 -13 -2.5 -228.5t-2.5 -268.5q0 -29 -8.5 -52.5t-32.5 -49.5t-78.5 -40.5t-135.5 -14.5q-338 0 -338 78q0 40 40 40q6 0 36.5 -4.5t79 -11t90.5 -9.5q2 21 2 118q0 29 -5 132.5t-5 108.5
q0 28 10 42t41 14q34 0 45 -11.5t11 -35.5q0 -4 -2 -53t-3.5 -116.5t-1.5 -115.5z" />
    <glyph glyph-name="lamalefarabic" unicode="&#xfedf;&#xfe8e;" horiz-adv-x="696" arabic-form="isolated" 
d="M387 160v-85q101 0 135 27.5t34 116.5q0 102 -12.5 247.5t-12.5 171.5q0 67 55 67q38 0 49.5 -17t11.5 -50q0 -13 -2.5 -228.5t-2.5 -268.5q0 -29 -8.5 -52.5t-32.5 -49.5t-78.5 -40.5t-135.5 -14.5q-338 0 -338 78q0 40 40 40q6 0 36.5 -4.5t79 -11t90.5 -9.5
q2 21 2 118q0 29 -5 132.5t-5 108.5q0 28 10 42t41 14q34 0 45 -11.5t11 -35.5q0 -4 -2 -53t-3.5 -116.5t-1.5 -115.5z" />
    <glyph glyph-name="lamaleffinalarabic" unicode="&#xfee0;&#xfe8e;" horiz-adv-x="640" arabic-form="final" 
d="M387 160v-85q101 0 135 27.5t34 116.5q0 102 -12.5 247.5t-12.5 171.5q0 67 55 67q38 0 49.5 -17t11.5 -50q0 -13 -2.5 -228.5t-2.5 -268.5q0 -29 -8.5 -52.5t-32.5 -49.5t-78.5 -40.5t-135.5 -14.5q-338 0 -338 78q0 40 40 40q6 0 36.5 -4.5t79 -11t90.5 -9.5
q2 21 2 118q0 29 -5 132.5t-5 108.5q0 28 10 42t41 14q34 0 45 -11.5t11 -35.5q0 -4 -2 -53t-3.5 -116.5t-1.5 -115.5z" />
    <glyph glyph-name="hamzaarabic" unicode="&#x621;" horiz-adv-x="363" arabic-form="isolated" 
d="M262 79h33q19 0 19 -33q0 -43 -59 -43q-68 0 -120 -3t-80 -6t-36 -3q-11 0 -15 6.5t-4 24.5q0 13 3 22t12 18t29.5 14t52.5 5q-22 14 -39.5 42t-17.5 61q0 61 42.5 92.5t99.5 31.5q120 0 120 -65q0 -14 -7.5 -21.5t-15.5 -7.5q-7 0 -31 6t-46 6q-26 0 -50 -14.5
t-24 -48.5q0 -45 38 -64.5t96 -19.5z" />
    <glyph glyph-name="alefarabic" unicode="&#x627;" horiz-adv-x="253" arabic-form="isolated" 
d="M127 0q-35 0 -45 18t-10 56q0 3 4.5 50t9 124t4.5 153q0 27 -6.5 131t-6.5 110q0 59 48 59q18 0 29 -4t15 -13t5 -16t1 -21q0 -5 -2.5 -54t-4.5 -116t-2 -116q0 -64 4 -138t7.5 -122.5t3.5 -52.5q0 -22 -10.5 -35t-43.5 -13z" />
    <glyph glyph-name="beharabic" unicode="&#x628;" horiz-adv-x="882" arabic-form="isolated" 
d="M0 189q0 18 2.5 36t9 38t19.5 32.5t31 12.5q17 0 26 -8t9 -19q0 -10 -7 -38t-7 -54q0 -68 69.5 -93t243.5 -25q141 0 212 10.5t99.5 35.5t28.5 74q0 51 -10.5 98t-10.5 51q0 24 11.5 37.5t45.5 13.5q35 0 48 -16.5t13 -46.5q0 -13 -5 -70.5t-5 -110.5q0 -22 -1.5 -35
t-10 -33t-24.5 -31.5t-48 -25.5t-77.5 -21.5t-115.5 -13t-160 -5.5q-67 0 -117 3.5t-103.5 16.5t-87.5 34.5t-56 60.5t-22 92zM371 -144q0 27 15 44t45 17q36 0 48 -16t12 -45q0 -59 -60 -59t-60 59z" />
    <glyph glyph-name="tehmarbutaarabic" unicode="&#x629;" horiz-adv-x="456" arabic-form="isolated" 
d="M207 -22q-107 0 -159.5 62.5t-52.5 157.5q0 110 61 178t153 68q95 0 153 -62.5t58 -168.5q0 -45 -10.5 -84.5t-33.5 -74.5t-66.5 -55.5t-102.5 -20.5zM205 76q54 0 82 38.5t28 96.5q0 70 -30 105.5t-80 35.5q-44 0 -77.5 -38.5t-33.5 -110.5q0 -61 29.5 -94t81.5 -33z
M75 602q0 29 14.5 47.5t45.5 18.5q24 0 39.5 -16.5t15.5 -41.5q0 -26 -14 -42t-43 -16q-58 0 -58 50zM218 610q0 25 15.5 41.5t42.5 16.5q57 0 57 -63q0 -53 -57 -53q-58 0 -58 58z" />
    <glyph glyph-name="teharabic" unicode="&#x62a;" horiz-adv-x="882" arabic-form="isolated" 
d="M0 189q0 18 2.5 36t9 38t19.5 32.5t31 12.5q17 0 26 -8t9 -19q0 -10 -7 -38t-7 -54q0 -68 69.5 -93t243.5 -25q141 0 212 10.5t99.5 35.5t28.5 74q0 51 -10.5 98t-10.5 51q0 24 11.5 37.5t45.5 13.5q35 0 48 -16.5t13 -46.5q0 -13 -5 -70.5t-5 -110.5q0 -22 -1.5 -35
t-10 -33t-24.5 -31.5t-48 -25.5t-77.5 -21.5t-115.5 -13t-160 -5.5q-67 0 -117 3.5t-103.5 16.5t-87.5 34.5t-56 60.5t-22 92zM277 551q0 29 14.5 47.5t45.5 18.5q24 0 39.5 -16.5t15.5 -41.5q0 -26 -14 -42t-43 -16q-58 0 -58 50zM420 559q0 25 15.5 41.5t42.5 16.5
q57 0 57 -63q0 -53 -57 -53q-58 0 -58 58z" />
    <glyph glyph-name="theharabic" unicode="&#x62b;" horiz-adv-x="882" arabic-form="isolated" 
d="M0 189q0 18 2.5 36t9 38t19.5 32.5t31 12.5q17 0 26 -8t9 -19q0 -10 -7 -38t-7 -54q0 -68 69.5 -93t243.5 -25q141 0 212 10.5t99.5 35.5t28.5 74q0 51 -10.5 98t-10.5 51q0 24 11.5 37.5t45.5 13.5q35 0 48 -16.5t13 -46.5q0 -13 -5 -70.5t-5 -110.5q0 -22 -1.5 -35
t-10 -33t-24.5 -31.5t-48 -25.5t-77.5 -21.5t-115.5 -13t-160 -5.5q-67 0 -117 3.5t-103.5 16.5t-87.5 34.5t-56 60.5t-22 92zM349 682q0 29 14.5 47.5t45.5 18.5q24 0 39.5 -16.5t15.5 -41.5q0 -26 -14 -42t-43 -16q-58 0 -58 50zM277 551q0 29 14.5 47.5t45.5 18.5
q24 0 39.5 -16.5t15.5 -41.5q0 -26 -14 -42t-43 -16q-58 0 -58 50zM420 559q0 25 15.5 41.5t42.5 16.5q57 0 57 -63q0 -53 -57 -53q-58 0 -58 58z" />
    <glyph glyph-name="jeemarabic" unicode="&#x62c;" horiz-adv-x="561" arabic-form="isolated" 
d="M0 -128q0 64 23 112t59 74.5t80 45t88.5 29.5t80.5 21.5t59 27t23 41.5q0 46 -40.5 84t-121.5 38q-28 0 -63.5 -10.5t-44.5 -10.5q-8 0 -15.5 2t-17.5 14t-10 34q0 46 43 70.5t109 24.5q62 0 113.5 -34.5t82.5 -87t47.5 -108.5t16.5 -105q0 -35 -31 -57t-77 -31
t-100 -21.5t-100 -26t-77 -47t-31 -82.5q0 -53 37.5 -90t108.5 -37q54 0 101 27t72 27t39.5 -20t14.5 -44q0 -51 -56.5 -75t-141.5 -24q-133 0 -202 71t-69 168zM195 -122q0 27 15 44t45 17q36 0 48 -16t12 -45q0 -59 -60 -59t-60 59z" />
    <glyph glyph-name="haharabic" unicode="&#x62d;" horiz-adv-x="561" arabic-form="isolated" 
d="M0 -128q0 64 23 112t59 74.5t80 45t88.5 29.5t80.5 21.5t59 27t23 41.5q0 46 -40.5 84t-121.5 38q-28 0 -63.5 -10.5t-44.5 -10.5q-8 0 -15.5 2t-17.5 14t-10 34q0 46 43 70.5t109 24.5q62 0 113.5 -34.5t82.5 -87t47.5 -108.5t16.5 -105q0 -35 -31 -57t-77 -31
t-100 -21.5t-100 -26t-77 -47t-31 -82.5q0 -53 37.5 -90t108.5 -37q54 0 101 27t72 27t39.5 -20t14.5 -44q0 -51 -56.5 -75t-141.5 -24q-133 0 -202 71t-69 168z" />
    <glyph glyph-name="khaharabic" unicode="&#x62e;" horiz-adv-x="561" arabic-form="isolated" 
d="M191 612q0 27 15 44t45 17q36 0 48 -16t12 -45q0 -59 -60 -59t-60 59zM0 -128q0 64 23 112t59 74.5t80 45t88.5 29.5t80.5 21.5t59 27t23 41.5q0 46 -40.5 84t-121.5 38q-28 0 -63.5 -10.5t-44.5 -10.5q-8 0 -15.5 2t-17.5 14t-10 34q0 46 43 70.5t109 24.5
q62 0 113.5 -34.5t82.5 -87t47.5 -108.5t16.5 -105q0 -35 -31 -57t-77 -31t-100 -21.5t-100 -26t-77 -47t-31 -82.5q0 -53 37.5 -90t108.5 -37q54 0 101 27t72 27t39.5 -20t14.5 -44q0 -51 -56.5 -75t-141.5 -24q-133 0 -202 71t-69 168z" />
    <glyph glyph-name="dalarabic" unicode="&#x62f;" horiz-adv-x="512" arabic-form="isolated" 
d="M113 -35q-32 12 -48 30t-16 51q0 31 7.5 48.5t19.5 17.5t39 -13t69.5 -25.5t91.5 -12.5q43 0 72.5 19t30.5 56q-1 33 -33 68t-69 58.5t-68 48.5t-31 42q0 31 30.5 58t64.5 27q42 0 87 -47t74 -114t29 -125q0 -43 -10 -76t-34 -63t-71.5 -46t-115.5 -16q-74 0 -119 14z
" />
    <glyph glyph-name="thalarabic" unicode="&#x630;" horiz-adv-x="512" arabic-form="isolated" 
d="M113 -35q-32 12 -48 30t-16 51q0 31 7.5 48.5t19.5 17.5t39 -13t69.5 -25.5t91.5 -12.5q43 0 72.5 19t30.5 56q-1 33 -33 68t-69 58.5t-68 48.5t-31 42q0 31 30.5 58t64.5 27q42 0 87 -47t74 -114t29 -125q0 -43 -10 -76t-34 -63t-71.5 -46t-115.5 -16q-74 0 -119 14z
M213 589q0 27 15 44t45 17q36 0 48 -16t12 -45q0 -59 -60 -59t-60 59z" />
    <glyph glyph-name="reharabic" unicode="&#x631;" horiz-adv-x="371" arabic-form="isolated" 
d="M69 -62q38 6 60 13.5t46 25t35 51t11 85.5q0 48 -19 116.5t-19 95.5q0 31 18.5 48.5t54.5 17.5q57 0 57 -63q0 -12 -5 -76.5t-5 -117.5q0 -154 -61 -241.5t-170 -87.5q-77 0 -77 63q0 13 4 25.5t22 26.5t48 18z" />
    <glyph glyph-name="zainarabic" unicode="&#x632;" horiz-adv-x="371" arabic-form="isolated" 
d="M198 542q0 27 15 44t45 17q36 0 48 -16t12 -45q0 -59 -60 -59t-60 59zM69 -62q38 6 60 13.5t46 25t35 51t11 85.5q0 48 -19 116.5t-19 95.5q0 31 18.5 48.5t54.5 17.5q57 0 57 -63q0 -12 -5 -76.5t-5 -117.5q0 -154 -61 -241.5t-170 -87.5q-77 0 -77 63q0 13 4 25.5
t22 26.5t48 18z" />
    <glyph glyph-name="seenarabic" unicode="&#x633;" horiz-adv-x="1222" arabic-form="isolated" 
d="M538 -97q-75 -104 -251 -104q-143 0 -215 76.5t-72 200.5q0 168 76 168q29 0 49.5 -16.5t20.5 -37.5q0 -14 -22.5 -57t-22.5 -89q0 -77 51.5 -114t138.5 -37q96 0 150 42.5t54 110.5q0 54 -25.5 107t-25.5 79q0 28 17 45t48 17q56 0 74 -53q9 -28 10 -46q2 -23 20 -55
q24 -52 87 -52q86 0 86 80q0 32 -8 74.5t-8 52.5q0 55 46 55q51 0 51 -52q0 -4 2 -50.5t2 -79.5q0 -38 28 -69t70 -31q35 0 61 26t26 87q0 57 -14.5 103.5t-14.5 54.5q0 10 2 17.5t8 18t21 16t39 5.5q46 0 61 -24t15 -64q0 -19 -4.5 -62.5t-4.5 -72.5q0 -63 -11.5 -104.5
t-34.5 -60t-45.5 -25t-55.5 -6.5q-42 0 -85.5 16t-70.5 46q-35 -28 -61 -39t-68 -11q-45 0 -82 21t-56 47q0 -1 -1.5 -11t-2.5 -17.5t-4 -20t-7 -24.5t-9.5 -26t-13.5 -28t-18 -27z" />
    <glyph glyph-name="sheenarabic" unicode="&#x634;" horiz-adv-x="1222" arabic-form="isolated" 
d="M751 503q-58 0 -58 59q0 21 14 39t39 18q36 0 49 -15t13 -42q0 -26 -14 -42.5t-43 -16.5zM893 503q-31 0 -44 13t-13 46q0 24 15.5 40.5t41.5 16.5q58 0 58 -57q0 -59 -58 -59zM822 633q-57 0 -57 58q0 23 13.5 40.5t39.5 17.5q37 0 49.5 -15t12.5 -43q0 -25 -14.5 -41.5
t-43.5 -16.5zM538 -97q-75 -104 -251 -104q-143 0 -215 76.5t-72 200.5q0 168 76 168q29 0 49.5 -16.5t20.5 -37.5q0 -14 -22.5 -57t-22.5 -89q0 -77 51.5 -114t138.5 -37q96 0 150 42.5t54 110.5q0 54 -25.5 107t-25.5 79q0 28 17 45t48 17q56 0 74 -53q9 -28 10 -46
q2 -23 20 -55q24 -52 87 -52q86 0 86 80q0 32 -8 74.5t-8 52.5q0 55 46 55q51 0 51 -52q0 -4 2 -50.5t2 -79.5q0 -38 28 -69t70 -31q35 0 61 26t26 87q0 57 -14.5 103.5t-14.5 54.5q0 10 2 17.5t8 18t21 16t39 5.5q46 0 61 -24t15 -64q0 -19 -4.5 -62.5t-4.5 -72.5
q0 -63 -11.5 -104.5t-34.5 -60t-45.5 -25t-55.5 -6.5q-42 0 -85.5 16t-70.5 46q-35 -28 -61 -39t-68 -11q-45 0 -82 21t-56 47q0 -1 -1.5 -11t-2.5 -17.5t-4 -20t-7 -24.5t-9.5 -26t-13.5 -28t-18 -27z" />
    <glyph glyph-name="sadarabic" unicode="&#x635;" horiz-adv-x="1382" arabic-form="isolated" 
d="M594 179l1 -16q6 -31 21 -43t53 -12q19 0 33.5 8t26.5 27.5t20.5 38t24 54t28.5 61.5q42 85 115.5 131t168.5 46q118 0 182.5 -66t64.5 -168q0 -247 -384 -247q-173 0 -291 33q-43 13 -64 23q0 -1 -2 -12.5t-5.5 -25.5t-9 -32t-15.5 -38t-23 -38q-76 -104 -252 -104
q-143 0 -215 76.5t-72 200.5q0 168 76 168q29 0 49.5 -16.5t20.5 -37.5q0 -14 -22.5 -57t-22.5 -89q0 -77 51.5 -114t138.5 -37q96 0 150 42.5t54 110.5q0 54 -25.5 107t-25.5 79q0 28 17 45t48 17q43 0 62.5 -28t22.5 -87zM825 163q0 -40 43 -62t126 -22q105 0 166.5 37
t61.5 100q0 57 -43.5 97.5t-124.5 40.5q-95 0 -162 -59.5t-67 -131.5z" />
    <glyph glyph-name="dadarabic" unicode="&#x636;" horiz-adv-x="1382" arabic-form="isolated" 
d="M594 179l1 -16q6 -31 21 -43t53 -12q19 0 33.5 8t26.5 27.5t20.5 38t24 54t28.5 61.5q42 85 115.5 131t168.5 46q118 0 182.5 -66t64.5 -168q0 -247 -384 -247q-173 0 -291 33q-43 13 -64 23q0 -1 -2 -12.5t-5.5 -25.5t-9 -32t-15.5 -38t-23 -38q-76 -104 -252 -104
q-143 0 -215 76.5t-72 200.5q0 168 76 168q29 0 49.5 -16.5t20.5 -37.5q0 -14 -22.5 -57t-22.5 -89q0 -77 51.5 -114t138.5 -37q96 0 150 42.5t54 110.5q0 54 -25.5 107t-25.5 79q0 28 17 45t48 17q43 0 62.5 -28t22.5 -87zM988 640q0 27 15 44t45 17q36 0 48 -16t12 -45
q0 -59 -60 -59t-60 59zM825 163q0 -40 43 -62t126 -22q105 0 166.5 37t61.5 100q0 57 -43.5 97.5t-124.5 40.5q-95 0 -162 -59.5t-67 -131.5z" />
    <glyph glyph-name="taharabic" unicode="&#x637;" horiz-adv-x="849" arabic-form="isolated" 
d="M198 87l1 14q13 243 13 321q0 28 -5 124t-5 100q0 25 14.5 39.5t41.5 14.5q53 0 53 -44q0 -8 -9 -133t-11 -192q86 143 269 143q115 0 177.5 -68t62.5 -160q0 -43 -9.5 -78t-39.5 -70.5t-79 -59.5t-133 -39t-198 -15q-49 0 -84.5 1t-78.5 3.5t-72 8t-54.5 14t-38.5 22.5
t-13 32q0 35 35 35q9 0 50 -7t78 -7q22 0 35 1zM292 163q0 -49 42.5 -66.5t136.5 -17.5q98 0 158 37t60 100q0 57 -44 97.5t-124 40.5q-95 0 -162 -59.5t-67 -131.5z" />
    <glyph glyph-name="zaharabic" unicode="&#x638;" horiz-adv-x="849" arabic-form="isolated" 
d="M198 87l1 14q13 243 13 321q0 28 -5 124t-5 100q0 25 14.5 39.5t41.5 14.5q53 0 53 -44q0 -8 -9 -133t-11 -192q86 143 269 143q115 0 177.5 -68t62.5 -160q0 -43 -9.5 -78t-39.5 -70.5t-79 -59.5t-133 -39t-198 -15q-49 0 -84.5 1t-78.5 3.5t-72 8t-54.5 14t-38.5 22.5
t-13 32q0 35 35 35q9 0 50 -7t78 -7q22 0 35 1zM292 163q0 -49 42.5 -66.5t136.5 -17.5q98 0 158 37t60 100q0 57 -44 97.5t-124 40.5q-95 0 -162 -59.5t-67 -131.5zM455 640q0 27 15 44t45 17q36 0 48 -16t12 -45q0 -59 -60 -59t-60 59z" />
    <glyph glyph-name="ainarabic" unicode="&#x639;" horiz-adv-x="628" arabic-form="isolated" 
d="M198 118q-24 43 -24 100q0 83 53 140t148 57q31 0 64.5 -6.5t62.5 -26t29 -47.5q0 -38 -33 -38q-11 0 -44.5 9.5t-71.5 9.5q-53 0 -82.5 -30.5t-29.5 -79.5q0 -58 42 -90.5t95 -32.5q37 0 73 11.5t59 11.5q40 0 40 -34q0 -82 -210 -97q-13 -1 -38 -1q-36 0 -79.5 5.5
t-55.5 5.5q-25 0 -41 -10q-59 -35 -59 -106q0 -53 37.5 -90t108.5 -37q54 0 101 27t72 27t39.5 -20t14.5 -44q0 -51 -56.5 -75t-141.5 -24q-133 0 -202 71t-69 168q0 184 198 246z" />
    <glyph glyph-name="ghainarabic" unicode="&#x63a;" horiz-adv-x="628" arabic-form="isolated" 
d="M198 118q-24 43 -24 100q0 83 53 140t148 57q31 0 64.5 -6.5t62.5 -26t29 -47.5q0 -38 -33 -38q-11 0 -44.5 9.5t-71.5 9.5q-53 0 -82.5 -30.5t-29.5 -79.5q0 -58 42 -90.5t95 -32.5q37 0 73 11.5t59 11.5q40 0 40 -34q0 -82 -210 -97q-13 -1 -38 -1q-36 0 -79.5 5.5
t-55.5 5.5q-25 0 -41 -10q-59 -35 -59 -106q0 -53 37.5 -90t108.5 -37q54 0 101 27t72 27t39.5 -20t14.5 -44q0 -51 -56.5 -75t-141.5 -24q-133 0 -202 71t-69 168q0 184 198 246zM315 566q0 27 15 44t45 17q36 0 48 -16t12 -45q0 -59 -60 -59t-60 59z" />
    <glyph glyph-name="feharabic" unicode="&#x641;" horiz-adv-x="1025" arabic-form="isolated" 
d="M0 189q0 18 2.5 36t9 38t19.5 32.5t31 12.5q17 0 26 -8t9 -19q0 -10 -7 -38t-7 -54q0 -68 69.5 -93t243.5 -25q276 0 384.5 16.5t108.5 62.5q0 23 -24 23q-5 0 -43.5 -8t-71.5 -8q-84 0 -130 46t-46 120q0 101 56 159.5t142 58.5q204 0 204 -282q0 -62 -9.5 -104.5
t-37.5 -74.5t-67 -50t-110.5 -29.5t-154.5 -15t-211 -3.5q-67 0 -117 3.5t-103.5 16.5t-87.5 34.5t-56 60.5t-22 92zM655 337q0 -51 33 -81t86 -30q52 0 77.5 26t25.5 92q0 60 -31 90.5t-78 30.5q-44 0 -78.5 -33.5t-34.5 -94.5zM710 700q0 27 15 44t45 17q36 0 48 -16
t12 -45q0 -59 -60 -59t-60 59z" />
    <glyph glyph-name="qafarabic" unicode="&#x642;" horiz-adv-x="748" arabic-form="isolated" 
d="M99 87q-7 -26 -7 -51q0 -36 20 -64q22 -29 56 -45q32 -18 83 -29q45 -9 100 -9q60 0 108 15q43 15 80 42q37 31 54 63q18 36 18 83q0 14 -6 23q-7 9 -15 9q-2 0 -17 -3q-4 -2 -12 -4l-12 -3q-7 -3 -30 -8q-36 -3 -44 -3q-38 0 -77 12q-36 14 -54 35q-21 19 -34 51
q-11 36 -11 69q0 44 14 91q19 45 43 69q26 26 62 42q40 15 79 15q15 0 47 -5q21 -4 46 -14q25 -14 42 -31q20 -20 35 -51q15 -27 25 -76q7 -38 7 -105q0 -107 -24 -179q-24 -76 -73 -125q-45 -48 -115 -73q-69 -23 -158 -23q-86 0 -151 20q-62 18 -104 57q-39 35 -57 86
q-17 53 -17 108q0 31 4 58q6 40 12 54q10 26 23 42t34 16q15 0 25 -6q18 -7 21 -11q11 -8 17 -18q5 -12 5 -17q0 -11 -8 -29l-16 -35q-4 -7 -9.5 -22t-8.5 -21zM372 662q1 12 10 21q6 9 17 15q11 4 28 4q27 0 42 -16q15 -15 15 -42q0 -22 -13 -39q-16 -16 -46 -16
q-27 0 -40 10q-16 12 -16 39q0 16 3 24zM570 195q16 22 23 38q9 23 9 57q0 31 -9 55q-10 25 -25 37q-15 15 -35 22q-17 7 -40 7q-20 0 -41 -9q-23 -6 -37 -23q-15 -14 -26 -40q-10 -23 -10 -56q0 -19 9 -46q8 -21 24 -36q15 -15 38 -22q16 -7 48 -7q23 0 38 4q19 5 34 19z
M527 600q-7 7 -11 18q-5 13 -5 26q0 26 16 42q12 16 43 16q18 0 27 -4q13 -4 18 -15q6 -6 9 -19q3 -7 3 -23q0 -13 -3 -20t-11 -18q-3 -4 -17 -10q-9 -4 -26 -4q-16 0 -24 3q-10 2 -19 8z" />
    <glyph glyph-name="kafarabic" unicode="&#x643;" horiz-adv-x="1035" arabic-form="isolated" 
d="M890 150v9q0 1 -0.5 35.5t-0.5 74.5q0 81 -5.5 168t-10.5 143t-5 62q0 64 57 64q61 0 61 -76q0 -10 -5 -178.5t-5 -192.5q0 -62 -9.5 -104.5t-37.5 -74.5t-67 -50t-110.5 -29.5t-154.5 -15t-211 -3.5q-67 0 -117 3.5t-103.5 16.5t-87.5 34.5t-56 60.5t-22 92q0 18 2.5 36
t9 38t19.5 32.5t31 12.5q17 0 26 -8t9 -19q0 -10 -7 -38t-7 -54q0 -68 69.5 -93t243.5 -25q275 0 383.5 16.5t110.5 62.5zM563 359h22q13 0 13 -23q0 -28 -39 -28q-46 0 -81 -2t-53 -4t-24 -2q-13 0 -13 21q0 18 12.5 28.5t52.5 10.5q-38 26 -38 69q0 42 28.5 62.5
t66.5 20.5q80 0 80 -43q0 -20 -16 -20q-4 0 -20 4t-31 4q-18 0 -33.5 -9t-15.5 -33q0 -56 89 -56z" />
    <glyph glyph-name="lamarabic" unicode="&#x644;" horiz-adv-x="659" arabic-form="isolated" 
d="M0 76q0 168 76 168q29 0 49.5 -16.5t20.5 -37.5q0 -13 -22.5 -57.5t-22.5 -92.5q0 -74 51.5 -110.5t138.5 -36.5q109 0 167.5 49t58.5 170q0 136 -19.5 294t-19.5 198q0 52 13.5 77t56.5 25q27 0 41.5 -13.5t17.5 -28.5t3 -38q0 -72 -5.5 -229.5t-5.5 -237.5
q0 -66 -5.5 -114t-24 -97t-51 -79.5t-88.5 -50t-133 -19.5q-146 0 -221.5 77t-75.5 200z" />
    <glyph glyph-name="meemarabic" unicode="&#x645;" horiz-adv-x="688" arabic-form="isolated" 
d="M119 -360q-33 0 -55.5 28.5t-32.5 76t-13.5 87.5t-3.5 84q0 58 17.5 100.5t43 66t52 41.5t48 38.5t26.5 46.5q23 104 82.5 157.5t142.5 53.5q96 0 154.5 -59.5t58.5 -158.5q0 -107 -61 -160.5t-146 -53.5q-56 0 -97.5 19t-65 37.5t-34.5 18.5q-55 0 -86.5 -29t-31.5 -82
q0 -54 15.5 -99.5t30.5 -79.5t15 -61q0 -40 -17.5 -56t-41.5 -16zM293 197q0 -51 36 -81t93 -30q56 0 84 34t28 78q0 45 -30.5 83.5t-90.5 38.5q-45 0 -82.5 -34t-37.5 -89z" />
    <glyph glyph-name="noonarabic" unicode="&#x646;" horiz-adv-x="646" arabic-form="isolated" 
d="M0 76q0 168 76 168q29 0 49.5 -16.5t20.5 -37.5q0 -14 -22.5 -57t-22.5 -89q0 -77 51.5 -114t138.5 -37q96 0 150 42.5t54 110.5q0 54 -25.5 107t-25.5 79q0 28 17 45t48 17q29 0 47.5 -12.5t27 -41t11 -60t2.5 -83.5q0 -40 -7 -77.5t-28 -79t-54 -71.5t-90 -50t-131 -20
q-143 0 -215 76.5t-72 200.5zM244 476q0 27 15 44t45 17q36 0 48 -16t12 -45q0 -59 -60 -59t-60 59z" />
    <glyph glyph-name="heharabic" unicode="&#x647;" horiz-adv-x="456" arabic-form="isolated" 
d="M207 -22q-107 0 -159.5 62.5t-52.5 157.5q0 110 61 178t153 68q95 0 153 -62.5t58 -168.5q0 -45 -10.5 -84.5t-33.5 -74.5t-66.5 -55.5t-102.5 -20.5zM205 76q54 0 82 38.5t28 96.5q0 70 -30 105.5t-80 35.5q-44 0 -77.5 -38.5t-33.5 -110.5q0 -61 29.5 -94t81.5 -33z
" />
    <glyph glyph-name="wawarabic" unicode="&#x648;" horiz-adv-x="508" arabic-form="isolated" 
d="M143 200q0 -50 27.5 -81.5t86.5 -31.5q47 0 75 29t28 89q0 57 -30 91t-74 34q-51 0 -82 -36.5t-31 -93.5zM49 -182q0 58 76 58q100 0 167.5 35t67.5 91q0 25 -14 25q-2 0 -32.5 -12.5t-67.5 -12.5q-90 0 -139.5 51.5t-49.5 131.5q0 100 58 161t142 61q202 0 202 -307
q0 -162 -88 -250.5t-236 -88.5q-48 0 -67 14.5t-19 42.5z" />
    <glyph glyph-name="alefmaksuraarabic" unicode="&#x649;" horiz-adv-x="853" arabic-form="isolated" 
d="M507 71q-28 19 -45 71q-14 42 -14 76t14 76q12 36 37 64q23 24 63 42q38 15 87 15q36 0 55 -5q26 -3 50 -14q25 -12 38 -26q12 -11 12 -34q0 -15 -2 -17q-2 -5 -8 -13q-5 -5 -10 -6q-3 0 -6.5 -1t-5.5 -1q-12 0 -21 3q-4 2 -11.5 4t-11.5 3q-9 3 -28 5q-13 4 -44 4
q-17 0 -39 -5q-22 -6 -35 -21q-17 -13 -28 -33q-10 -20 -10 -52q0 -31 11 -52q13 -22 33 -39q15 -14 44 -23q2 -1 17 -5t29.5 -8.5t31.5 -12.5t32 -20t23 -26l9 -22q10 -30 10 -61q0 -107 -124 -181t-328 -74q-332 0 -332 219q0 132 65 132q21 0 39.5 -14t18.5 -38
q0 -15 -13 -45.5t-13 -54.5q0 -53 65.5 -83.5t196.5 -30.5q90 0 171 17.5t134.5 53.5t53.5 82q0 52 -66 86q-28 16 -62 28q-16 7 -33.5 13.5t-28 11t-21.5 12.5z" />
    <glyph glyph-name="yeharabic" unicode="&#x64a;" horiz-adv-x="853" arabic-form="isolated" 
d="M276 -447q0 67 60 67q24 0 40 -17.5t16 -41.5q0 -26 -14.5 -42t-43.5 -16q-58 0 -58 50zM478 -497q-57 0 -57 58q0 25 15 42t42 17q58 0 58 -64q0 -53 -58 -53zM507 71q-28 19 -45 71q-14 42 -14 76t14 76q12 36 37 64q23 24 63 42q38 15 87 15q36 0 55 -5q26 -3 50 -14
q25 -12 38 -26q12 -11 12 -34q0 -15 -2 -17q-2 -5 -8 -13q-5 -5 -10 -6q-3 0 -6.5 -1t-5.5 -1q-12 0 -21 3q-4 2 -11.5 4t-11.5 3q-9 3 -28 5q-13 4 -44 4q-17 0 -39 -5q-22 -6 -35 -21q-17 -13 -28 -33q-10 -20 -10 -52q0 -31 11 -52q13 -22 33 -39q15 -14 44 -23
q2 -1 17 -5t29.5 -8.5t31.5 -12.5t32 -20t23 -26l9 -22q10 -30 10 -61q0 -107 -124 -181t-328 -74q-332 0 -332 219q0 132 65 132q21 0 39.5 -14t18.5 -38q0 -15 -13 -45.5t-13 -54.5q0 -53 65.5 -83.5t196.5 -30.5q90 0 171 17.5t134.5 53.5t53.5 82q0 52 -66 86
q-28 16 -62 28q-16 7 -33.5 13.5t-28 11t-21.5 12.5z" />
    <glyph glyph-name="fathatanarabic" unicode="&#xfe70;" arabic-form="isolated" 
d="M24 785q-1 0 -4 -0.5t-5 -0.5q-22 0 -22 29q0 10 14 20t38.5 19t47 15.5t49 13.5t35.5 10t15 3q8 0 16.5 -8t8.5 -26q0 -11 -7 -18.5t-20 -12t-24.5 -7.5t-28.5 -5.5t-24 -4.5q-42 -11 -89 -27zM24 914q-1 0 -4 -0.5t-5 -0.5q-22 0 -22 29q0 10 14 20t38.5 19t47 15.5
t49 13.5t35.5 10t15 3q8 0 16.5 -8t8.5 -26q0 -11 -7 -18.5t-20 -12t-24.5 -7.5t-28.5 -5.5t-24 -4.5q-42 -11 -89 -27z" />
    <glyph glyph-name="dammatanarabic" unicode="&#xfe72;" arabic-form="isolated" 
d="M72 798v10q0 21 -17 21q-8 0 -25 -6t-20 -6q-17 0 -17 32q0 14 6 20q3 3 13 9q35 17 58 17q15 0 22.5 -6t7.5 -11l1 -9q2 -16 3.5 -21.5t8 -10.5t20.5 -5q19 0 26 7q-30 24 -30 55q0 32 22 54t53 22t53 -19t22 -54q0 -52 -50 -82.5t-105 -30.5h-13q-39 0 -39 14zM173 892
q0 -11 8.5 -21t22.5 -10q12 0 21.5 9.5t9.5 23.5q0 18 -11 24.5t-20 6.5q-13 0 -22 -8.5t-9 -24.5z" />
    <glyph glyph-name="kasratanarabic" unicode="&#xfe74;" arabic-form="isolated" 
d="M24 -316q-1 0 -4 -0.5t-5 -0.5q-22 0 -22 29q0 10 14 20t38.5 19t47 15.5t49 13.5t35.5 10t15 3q8 0 16.5 -8t8.5 -26q0 -11 -7 -18.5t-20 -12t-24.5 -7.5t-28.5 -5.5t-24 -4.5q-42 -11 -89 -27zM24 -187q-1 0 -4 -0.5t-5 -0.5q-22 0 -22 29q0 10 14 20t38.5 19t47 15.5
t49 13.5t35.5 10t15 3q8 0 16.5 -8t8.5 -26q0 -11 -7 -18.5t-20 -12t-24.5 -7.5t-28.5 -5.5t-24 -4.5q-42 -11 -89 -27z" />
    <glyph glyph-name="fathaarabic" unicode="&#xfe76;" arabic-form="isolated" 
d="M24 785q-1 0 -4 -0.5t-5 -0.5q-22 0 -22 29q0 10 14 20t38.5 19t47 15.5t49 13.5t35.5 10t15 3q8 0 16.5 -8t8.5 -26q0 -11 -7 -18.5t-20 -12t-24.5 -7.5t-28.5 -5.5t-24 -4.5q-42 -11 -89 -27z" />
    <glyph glyph-name="dammaarabic" unicode="&#xfe78;" arabic-form="isolated" 
d="M130 839q-30 24 -30 55q0 32 22 54t53 22t53 -19t22 -54q0 -52 -50 -82.5t-105 -30.5q-102 0 -102 40q0 14 8 21t19 7q14 0 42 -10t42 -10q19 0 26 7zM144 892q0 -11 8.5 -21t22.5 -10q13 0 22 9.5t9 23.5q0 18 -11 24.5t-20 6.5q-13 0 -22 -8.5t-9 -24.5z" />
    <glyph glyph-name="kasraarabic" unicode="&#xfe7a;" arabic-form="isolated" 
d="M24 -187q-1 0 -4 -0.5t-5 -0.5q-22 0 -22 29q0 10 14 20t38.5 19t47 15.5t49 13.5t35.5 10t15 3q8 0 16.5 -8t8.5 -26q0 -11 -7 -18.5t-20 -12t-24.5 -7.5t-28.5 -5.5t-24 -4.5q-42 -11 -89 -27z" />
    <glyph glyph-name="shaddaarabic" unicode="&#xfe7c;" arabic-form="isolated" 
d="M164 879q-1 -3 -1 -15q0 -27 23 -27q25 0 25 52q0 19 1.5 29t8.5 18t20 8q20 0 25.5 -12.5t5.5 -35.5v-13q0 -99 -71 -99q-24 0 -45 10l-21 10q-9 0 -31.5 -10t-38.5 -10q-30 0 -50 21.5t-20 60.5q0 10 -1 24t-1 18q0 20 8 27.5t27 7.5q30 0 30 -40q0 -8 -1 -21t-1 -18
q0 -27 24 -27q11 0 17.5 7.5t6.5 19.5q0 5 -2.5 17.5t-2.5 20.5q0 30 37 30q19 0 23.5 -11.5t4.5 -41.5z" />
    <glyph glyph-name="sukunarabic" unicode="&#xfe7e;" arabic-form="isolated" 
d="M-34 865q0 -20 8 -26.5t25 -6.5q32 0 32 33q0 34 -32 34q-16 0 -24.5 -10.5t-8.5 -23.5zM-80 865q0 31 20.5 56t59.5 25q80 0 80 -81q0 -80 -80 -80q-41 0 -60.5 16t-19.5 64z" />
    <glyph glyph-name="alefwaslaarabic" unicode="&#x671;" horiz-adv-x="253" arabic-form="isolated" 
d="M127 0q-35 0 -45 18t-10 56q0 3 4.5 50t9 124t4.5 153q0 27 -6.5 131t-6.5 110q0 59 48 59q18 0 29 -4t15 -13t5 -16t1 -21q0 -5 -2.5 -54t-4.5 -116t-2 -116q0 -64 4 -138t7.5 -122.5t3.5 -52.5q0 -22 -10.5 -35t-43.5 -13zM79 855q0 -23 46 -23q29 0 46 10.5t17 27.5
q0 15 -12 26.5t-34 11.5q-26 0 -44.5 -16t-18.5 -37zM-132 808q0 1 10 9q4 4 11 7q3 0 8.5 -3.5t10.5 -3.5q15 0 22.5 8.5t7.5 18.5t16 10h4q12 0 12 -9q0 -16 30 -16q7 0 12.5 3t10.5 10.5t8 14.5t8.5 20.5t10.5 22.5q32 66 107 66q44 0 68 -24.5t24 -62.5q0 -93 -144 -93
q-48 0 -80.5 6t-47 12.5t-18.5 6.5q-1 0 -8 -5t-19.5 -10.5t-27.5 -5.5q-12 0 -24 7t-12 11z" />
    <glyph glyph-name="pehfarsi" unicode="&#x67e;" horiz-adv-x="882" arabic-form="isolated" 
d="M0 189q0 18 2.5 36t9 38t19.5 32.5t31 12.5q17 0 26 -8t9 -19q0 -10 -7 -38t-7 -54q0 -68 69.5 -93t243.5 -25q141 0 212 10.5t99.5 35.5t28.5 74q0 51 -10.5 98t-10.5 51q0 24 11.5 37.5t45.5 13.5q35 0 48 -16.5t13 -46.5q0 -13 -5 -70.5t-5 -110.5q0 -22 -1.5 -35
t-10 -33t-24.5 -31.5t-48 -25.5t-77.5 -21.5t-115.5 -13t-160 -5.5q-67 0 -117 3.5t-103.5 16.5t-87.5 34.5t-56 60.5t-22 92zM432 -330q-31 0 -45.5 18.5t-14.5 47.5q0 50 58 50q29 0 43 -16t14 -42q0 -25 -15.5 -41.5t-39.5 -16.5zM360 -199q-31 0 -45.5 18.5t-14.5 47.5
q0 50 58 50q29 0 43 -16t14 -42q0 -25 -15.5 -41.5t-39.5 -16.5zM443 -141q0 58 58 58q57 0 57 -53q0 -63 -57 -63q-27 0 -42.5 16.5t-15.5 41.5z" />
    <glyph glyph-name="tchehfarsi" unicode="&#x686;" horiz-adv-x="561" arabic-form="isolated" 
d="M258 -222q-45 0 -45 47q0 37 43 37q20 0 30.5 -12t10.5 -30q0 -19 -11 -30.5t-28 -11.5zM205 -127q-44 0 -44 48q0 36 42 36t42 -42q0 -18 -11 -30t-29 -12zM265 -85q0 24 10.5 33t31.5 9q42 0 42 -38q0 -46 -42 -46q-20 0 -31 11.5t-11 30.5zM0 -128q0 64 23 112
t59 74.5t80 45t88.5 29.5t80.5 21.5t59 27t23 41.5q0 46 -40.5 84t-121.5 38q-28 0 -63.5 -10.5t-44.5 -10.5q-8 0 -15.5 2t-17.5 14t-10 34q0 46 43 70.5t109 24.5q62 0 113.5 -34.5t82.5 -87t47.5 -108.5t16.5 -105q0 -35 -31 -57t-77 -31t-100 -21.5t-100 -26t-77 -47
t-31 -82.5q0 -53 37.5 -90t108.5 -37q54 0 101 27t72 27t39.5 -20t14.5 -44q0 -51 -56.5 -75t-141.5 -24q-133 0 -202 71t-69 168z" />
    <glyph glyph-name="jehfarsi" unicode="&#x698;" horiz-adv-x="371" arabic-form="isolated" 
d="M198 664q0 29 14.5 47.5t45.5 18.5q24 0 39.5 -16.5t15.5 -41.5q0 -26 -14 -42t-43 -16q-58 0 -58 50zM126 533q0 29 14.5 47.5t45.5 18.5q24 0 39.5 -16.5t15.5 -41.5q0 -26 -14 -42t-43 -16q-58 0 -58 50zM269 541q0 25 15.5 41.5t42.5 16.5q57 0 57 -63q0 -53 -57 -53
q-58 0 -58 58zM69 -62q38 6 60 13.5t46 25t35 51t11 85.5q0 48 -19 116.5t-19 95.5q0 31 18.5 48.5t54.5 17.5q57 0 57 -63q0 -12 -5 -76.5t-5 -117.5q0 -154 -61 -241.5t-170 -87.5q-77 0 -77 63q0 13 4 25.5t22 26.5t48 18z" />
    <glyph glyph-name="vehfarsi" unicode="&#x6a4;" horiz-adv-x="1025" arabic-form="isolated" 
d="M711 822q0 29 14.5 47.5t45.5 18.5q24 0 39.5 -16.5t15.5 -41.5q0 -26 -14 -42t-43 -16q-58 0 -58 50zM639 691q0 29 14.5 47.5t45.5 18.5q24 0 39.5 -16.5t15.5 -41.5q0 -26 -14 -42t-43 -16q-58 0 -58 50zM782 699q0 25 15.5 41.5t42.5 16.5q57 0 57 -63q0 -53 -57 -53
q-58 0 -58 58zM0 189q0 18 2.5 36t9 38t19.5 32.5t31 12.5q17 0 26 -8t9 -19q0 -10 -7 -38t-7 -54q0 -68 69.5 -93t243.5 -25q276 0 384.5 16.5t108.5 62.5q0 23 -24 23q-5 0 -43.5 -8t-71.5 -8q-84 0 -130 46t-46 120q0 101 56 159.5t142 58.5q204 0 204 -282
q0 -62 -9.5 -104.5t-37.5 -74.5t-67 -50t-110.5 -29.5t-154.5 -15t-211 -3.5q-67 0 -117 3.5t-103.5 16.5t-87.5 34.5t-56 60.5t-22 92zM655 337q0 -51 33 -81t86 -30q52 0 77.5 26t25.5 92q0 60 -31 90.5t-78 30.5q-44 0 -78.5 -33.5t-34.5 -94.5z" />
    <glyph glyph-name="kehehfarsi" unicode="&#x6a9;" horiz-adv-x="1028" arabic-form="isolated" 
d="M881 193q0 41 -30.5 68.5t-67 39.5t-67 30.5t-30.5 41.5q0 13 14.5 60.5t38.5 105t63 102t79 44.5q25 0 43 -14t18 -41q0 -33 -26 -65.5t-66.5 -78t-63.5 -95.5q64 -17 106.5 -42.5t59.5 -55.5t22 -51.5t5 -47.5q0 -93 -91 -150q-16 -9 -53 -26q-83 -36 -449 -36
q-67 0 -117 3.5t-103.5 16.5t-87.5 34.5t-56 60.5t-22 92q0 18 2.5 36t9 38t19.5 32.5t31 12.5q17 0 26 -8t9 -19q0 -10 -7 -38t-7 -54q0 -68 69.5 -93t243.5 -25q252 0 340 11q72 8 106 33t39 78z" />
    <glyph glyph-name="gaffarsi" unicode="&#x6af;" horiz-adv-x="1028" arabic-form="isolated" 
d="M780 711l-16 -15q-62 -62 -105 -194q-10 -32 -15.5 -45t-16 -25t-25.5 -12q-36 0 -36 45q0 58 60 163q15 29 43 69q55 73 102 73q29 0 29 -25q0 -19 -20 -34zM881 193q0 41 -30.5 68.5t-67 39.5t-67 30.5t-30.5 41.5q0 13 14.5 60.5t38.5 105t63 102t79 44.5q25 0 43 -14
t18 -41q0 -33 -26 -65.5t-66.5 -78t-63.5 -95.5q64 -17 106.5 -42.5t59.5 -55.5t22 -51.5t5 -47.5q0 -93 -91 -150q-16 -9 -53 -26q-83 -36 -449 -36q-67 0 -117 3.5t-103.5 16.5t-87.5 34.5t-56 60.5t-22 92q0 18 2.5 36t9 38t19.5 32.5t31 12.5q17 0 26 -8t9 -19
q0 -10 -7 -38t-7 -54q0 -68 69.5 -93t243.5 -25q252 0 340 11q72 8 106 33t39 78z" />
    <glyph glyph-name="yehfarsi" unicode="&#x6cc;" horiz-adv-x="853" arabic-form="isolated" 
d="M507 71q-28 19 -45 71q-14 42 -14 76t14 76q12 36 37 64q23 24 63 42q38 15 87 15q36 0 55 -5q26 -3 50 -14q25 -12 38 -26q12 -11 12 -34q0 -15 -2 -17q-2 -5 -8 -13q-5 -5 -10 -6q-3 0 -6.5 -1t-5.5 -1q-12 0 -21 3q-4 2 -11.5 4t-11.5 3q-9 3 -28 5q-13 4 -44 4
q-17 0 -39 -5q-22 -6 -35 -21q-17 -13 -28 -33q-10 -20 -10 -52q0 -31 11 -52q13 -22 33 -39q15 -14 44 -23q2 -1 17 -5t29.5 -8.5t31.5 -12.5t32 -20t23 -26l9 -22q10 -30 10 -61q0 -107 -124 -181t-328 -74q-332 0 -332 219q0 132 65 132q21 0 39.5 -14t18.5 -38
q0 -15 -13 -45.5t-13 -54.5q0 -53 65.5 -83.5t196.5 -30.5q90 0 171 17.5t134.5 53.5t53.5 82q0 52 -66 86q-28 16 -62 28q-16 7 -33.5 13.5t-28 11t-21.5 12.5z" />
    <glyph glyph-name="alefwaslafinalarabic" unicode="&#x671;" horiz-adv-x="204" arabic-form="final" 
d="M204 113v-91q-75 16 -128 61t-53 100q0 100 -6 198t-12 159t-6 69q0 102 66 102q68 0 68 -85q0 -40 -18 -144t-18 -202q0 -13 -1 -35.5t-0.5 -30.5t3 -23t9 -21.5t19 -17t31 -19.5t46.5 -20zM19 855q0 -23 46 -23q29 0 46 10.5t17 27.5q0 15 -12 26.5t-34 11.5
q-26 0 -44.5 -16t-18.5 -37zM-171 824q3 0 8.5 -3.5t10.5 -3.5q15 0 22.5 8.5t7.5 18.5t16 10q16 1 16 -9q0 -16 30 -16q7 0 12.5 3t10.5 10.5t8 14.5t8.5 20.5t10.5 22.5q32 66 107 66q44 0 68 -24.5t24 -62.5q0 -93 -144 -93q-48 0 -81 6t-47 12.5t-17 6.5q-2 1 -7.5 -4
t-18.5 -11t-30 -6q-12 0 -24 7t-12 11q0 1 10 9q4 4 11 7z" />
    <glyph glyph-name="pehfinalfarsi" unicode="&#x67e;" horiz-adv-x="821" arabic-form="final" 
d="M0 189q0 18 2.5 36t9 38t19.5 32.5t31 12.5q17 0 26 -8t9 -19q0 -10 -7 -38t-7 -54q0 -68 69.5 -93t243.5 -25q141 0 212 10.5t99.5 35.5t28.5 74q0 51 -10.5 98t-10.5 51q0 24 11.5 37.5t45.5 13.5q35 0 48 -16.5t13 -46.5q0 -13 -5 -70.5t-5 -110.5q0 -22 -1.5 -35
t-10 -33t-24.5 -31.5t-48 -25.5t-77.5 -21.5t-115.5 -13t-160 -5.5q-67 0 -117 3.5t-103.5 16.5t-87.5 34.5t-56 60.5t-22 92zM432 -330q-31 0 -45.5 18.5t-14.5 47.5q0 50 58 50q29 0 43 -16t14 -42q0 -25 -15.5 -41.5t-39.5 -16.5zM360 -199q-31 0 -45.5 18.5t-14.5 47.5
q0 50 58 50q29 0 43 -16t14 -42q0 -25 -15.5 -41.5t-39.5 -16.5zM443 -141q0 58 58 58q57 0 57 -53q0 -63 -57 -63q-27 0 -42.5 16.5t-15.5 41.5z" />
    <glyph glyph-name="pehinitialfarsi" unicode="&#x67e;" horiz-adv-x="407" arabic-form="initial" 
d="M0 22q-41 11 -67 24t-26 21q0 7 21.5 29.5t34.5 22.5q21 0 37 -6q85 -30 146 -30q59 0 87 24.5t28 83.5q0 51 -10.5 98t-10.5 51q0 24 11.5 37.5t45.5 13.5q61 0 61 -63q0 -13 -5 -70.5t-5 -110.5q0 -75 -38.5 -111t-134.5 -36q-78 0 -175 22zM253 -301q-31 0 -45.5 18.5
t-14.5 47.5q0 50 58 50q29 0 43 -16t14 -42q0 -25 -15.5 -41.5t-39.5 -16.5zM181 -170q-31 0 -45.5 18.5t-14.5 47.5q0 50 58 50q29 0 43 -16t14 -42q0 -25 -15.5 -41.5t-39.5 -16.5zM264 -112q0 58 58 58q57 0 57 -53q0 -63 -57 -63q-27 0 -42.5 16.5t-15.5 41.5z" />
    <glyph glyph-name="pehmedialfarsi" unicode="&#x67e;" horiz-adv-x="322" arabic-form="medial" 
d="M-37 119q13 1 37 -6q53 -30 144 -30q97 0 97 84q0 61 -16.5 104t-16.5 53q0 39 49 39q74 0 74 -180q0 -99 -43 -143t-142 -44q-22 0 -46 3.5t-37.5 6.5t-36 9t-26.5 7q-39 12 -63 22q-30 12 -30 18q0 12 21 34.5t35 22.5zM244 -370q-31 0 -45.5 18.5t-14.5 47.5
q0 50 58 50q29 0 43 -16t14 -42q0 -25 -15.5 -41.5t-39.5 -16.5zM172 -239q-31 0 -45.5 18.5t-14.5 47.5q0 50 58 50q29 0 43 -16t14 -42q0 -25 -15.5 -41.5t-39.5 -16.5zM255 -181q0 58 58 58q57 0 57 -53q0 -63 -57 -63q-27 0 -42.5 16.5t-15.5 41.5z" />
    <glyph glyph-name="vehfinalfarsi" unicode="&#x6a4;" horiz-adv-x="954" arabic-form="final" 
d="M0 189q0 18 2.5 36t9 38t19.5 32.5t31 12.5q17 0 26 -8t9 -19q0 -10 -7 -38t-7 -54q0 -68 69.5 -93t243.5 -25q276 0 384.5 16.5t108.5 62.5q0 23 -24 23q-5 0 -43.5 -8t-71.5 -8q-84 0 -130 46t-46 120q0 101 56 159.5t142 58.5q204 0 204 -282q0 -62 -9.5 -104.5
t-37.5 -74.5t-67 -50t-110.5 -29.5t-154.5 -15t-211 -3.5q-67 0 -117 3.5t-103.5 16.5t-87.5 34.5t-56 60.5t-22 92zM655 337q0 -51 33 -81t86 -30q52 0 77.5 26t25.5 92q0 60 -31 90.5t-78 30.5q-44 0 -78.5 -33.5t-34.5 -94.5zM711 822q0 29 14.5 47.5t45.5 18.5
q24 0 39.5 -16.5t15.5 -41.5q0 -26 -14 -42t-43 -16q-58 0 -58 50zM639 691q0 29 14.5 47.5t45.5 18.5q24 0 39.5 -16.5t15.5 -41.5q0 -26 -14 -42t-43 -16q-58 0 -58 50zM782 699q0 25 15.5 41.5t42.5 16.5q57 0 57 -63q0 -53 -57 -53q-58 0 -58 58z" />
    <glyph glyph-name="vehinitialfarsi" unicode="&#x6a4;" horiz-adv-x="641" arabic-form="initial" 
d="M-93 65q0 21 26 39t40 18q2 0 6 -1.5t10 -3.5t11 -4q136 -42 262 -42q123 0 183.5 18.5t60.5 61.5q0 21 -23 21q-15 0 -55 -7t-61 -7q-80 0 -127.5 43t-47.5 123q0 99 54.5 158t143.5 59q31 0 56.5 -5.5t54 -23t48 -47t32.5 -82t13 -123.5q0 -79 -12.5 -128t-47.5 -85.5
t-98.5 -52t-163.5 -15.5q-127 0 -272 43q-93 29 -93 43zM273 338q0 -51 32 -81.5t87 -30.5q44 0 74 27.5t30 90.5q0 60 -32.5 91t-78.5 31q-47 0 -79.5 -35.5t-32.5 -92.5zM323 822q0 29 14.5 47.5t45.5 18.5q24 0 39.5 -16.5t15.5 -41.5q0 -26 -14 -42t-43 -16
q-58 0 -58 50zM251 691q0 29 14.5 47.5t45.5 18.5q24 0 39.5 -16.5t15.5 -41.5q0 -26 -14 -42t-43 -16q-58 0 -58 50zM394 699q0 25 15.5 41.5t42.5 16.5q57 0 57 -63q0 -53 -57 -53q-58 0 -58 58z" />
    <glyph glyph-name="vehmedialfarsi" unicode="&#x6a4;" horiz-adv-x="483" arabic-form="medial" 
d="M-93 65q0 21 26 39t40 18q2 0 6 -1.5t10 -3.5t11 -4q136 -42 262 -42q123 0 183.5 18.5t60.5 61.5q0 21 -23 21q-15 0 -55 -7t-61 -7q-80 0 -127.5 43t-47.5 123q0 99 54.5 158t143.5 59q31 0 56.5 -5.5t54 -23t48 -47t32.5 -82t13 -123.5q0 -79 -12.5 -128t-47.5 -85.5
t-98.5 -52t-163.5 -15.5q-127 0 -272 43q-93 29 -93 43zM273 338q0 -51 32 -81.5t87 -30.5q44 0 74 27.5t30 90.5q0 60 -32.5 91t-78.5 31q-47 0 -79.5 -35.5t-32.5 -92.5zM323 822q0 29 14.5 47.5t45.5 18.5q24 0 39.5 -16.5t15.5 -41.5q0 -26 -14 -42t-43 -16
q-58 0 -58 50zM251 691q0 29 14.5 47.5t45.5 18.5q24 0 39.5 -16.5t15.5 -41.5q0 -26 -14 -42t-43 -16q-58 0 -58 50zM394 699q0 25 15.5 41.5t42.5 16.5q57 0 57 -63q0 -53 -57 -53q-58 0 -58 58z" />
    <glyph glyph-name="tchehfinalfarsi" unicode="&#x686;" horiz-adv-x="512" arabic-form="final" 
d="M0 -128q0 64 23 112t59 74.5t80 45t88.5 29.5t80.5 21.5t59 27t23 41.5q0 46 -40.5 84t-121.5 38q-28 0 -63.5 -10.5t-44.5 -10.5q-8 0 -15.5 2t-17.5 14t-10 34q0 46 43 70.5t109 24.5q62 0 113.5 -34.5t82.5 -87t47.5 -108.5t16.5 -105q0 -35 -31 -57t-77 -31
t-100 -21.5t-100 -26t-77 -47t-31 -82.5q0 -53 37.5 -90t108.5 -37q54 0 101 27t72 27t39.5 -20t14.5 -44q0 -51 -56.5 -75t-141.5 -24q-133 0 -202 71t-69 168zM258 -222q-45 0 -45 47q0 37 43 37q20 0 30.5 -12t10.5 -30q0 -19 -11 -30.5t-28 -11.5zM205 -127
q-44 0 -44 48q0 36 42 36t42 -42q0 -18 -11 -30t-29 -12zM265 -85q0 24 10.5 33t31.5 9q42 0 42 -38q0 -46 -42 -46q-20 0 -31 11.5t-11 30.5z" />
    <glyph glyph-name="tchehinitialfarsi" unicode="&#x686;" horiz-adv-x="650" arabic-form="initial" 
d="M-37 119q7 1 14 0.5t10.5 -2t7.5 -3t5 -1.5q27 -11 42.5 -16.5t74 -13.5t137.5 -8q44 0 82 6t72.5 20.5t54.5 42.5t20 67q0 53 -37.5 93.5t-113.5 40.5q-37 0 -73.5 -10.5t-45.5 -10.5q-8 0 -15.5 2t-17.5 14t-10 34q0 47 46 71t113 24q87 0 141 -55t70 -137
q9 -49 22.5 -82t23.5 -44.5t17.5 -25t7.5 -28.5q0 -46 -98 -79.5t-238 -33.5q-56 0 -111 7q-98 10 -164 31q-64 19 -93 41q-2 11 20.5 33.5t35.5 22.5zM330 -370q-31 0 -45.5 18.5t-14.5 47.5q0 50 58 50q29 0 43 -16t14 -42q0 -25 -15.5 -41.5t-39.5 -16.5zM258 -239
q-31 0 -45.5 18.5t-14.5 47.5q0 50 58 50q29 0 43 -16t14 -42q0 -25 -15.5 -41.5t-39.5 -16.5zM341 -181q0 58 58 58q57 0 57 -53q0 -63 -57 -63q-27 0 -42.5 16.5t-15.5 41.5z" />
    <glyph glyph-name="tchehmedialfarsi" unicode="&#x686;" horiz-adv-x="567" arabic-form="medial" 
d="M-37 121q8 0 37 -8q37 -12 73 -22q116 -27 215 -27q87 0 139.5 36.5t52.5 110.5q0 49 -33.5 91.5t-107.5 42.5q-33 0 -65 -13.5t-43 -13.5q-48 0 -48 60q0 45 39 68t93 23q62 0 110.5 -25.5t75 -61.5t43 -82.5t21.5 -82t5 -67.5q0 -104 -67.5 -139.5t-210.5 -35.5
q-113 0 -292 47q-29 9 -54 19q-38 16 -38 24q0 14 19.5 33t35.5 23zM330 -370q-31 0 -45.5 18.5t-14.5 47.5q0 50 58 50q29 0 43 -16t14 -42q0 -25 -15.5 -41.5t-39.5 -16.5zM258 -239q-31 0 -45.5 18.5t-14.5 47.5q0 50 58 50q29 0 43 -16t14 -42q0 -25 -15.5 -41.5
t-39.5 -16.5zM341 -181q0 58 58 58q57 0 57 -53q0 -63 -57 -63q-27 0 -42.5 16.5t-15.5 41.5z" />
    <glyph glyph-name="jehfinalfarsi" unicode="&#x698;" horiz-adv-x="313" arabic-form="final" 
d="M69 -62q38 6 60 13.5t46 25t35 51t11 85.5q0 48 -19 116.5t-19 95.5q0 31 18.5 48.5t54.5 17.5q57 0 57 -63q0 -12 -5 -76.5t-5 -117.5q0 -154 -61 -241.5t-170 -87.5q-77 0 -77 63q0 13 4 25.5t22 26.5t48 18zM198 664q0 29 14.5 47.5t45.5 18.5q24 0 39.5 -16.5
t15.5 -41.5q0 -26 -14 -42t-43 -16q-58 0 -58 50zM126 533q0 29 14.5 47.5t45.5 18.5q24 0 39.5 -16.5t15.5 -41.5q0 -26 -14 -42t-43 -16q-58 0 -58 50zM269 541q0 25 15.5 41.5t42.5 16.5q57 0 57 -63q0 -53 -57 -53q-58 0 -58 58z" />
    <glyph glyph-name="kehehfinalfarsi" unicode="&#x6a9;" horiz-adv-x="852" arabic-form="final" 
d="M881 193q0 41 -30.5 68.5t-67 39.5t-67 30.5t-30.5 41.5q0 13 14.5 60.5t38.5 105t63 102t79 44.5q25 0 43 -14t18 -41q0 -33 -26 -65.5t-66.5 -78t-63.5 -95.5q64 -17 106.5 -42.5t59.5 -55.5t22 -51.5t5 -47.5q0 -93 -91 -150q-16 -9 -53 -26q-83 -36 -449 -36
q-67 0 -117 3.5t-103.5 16.5t-87.5 34.5t-56 60.5t-22 92q0 18 2.5 36t9 38t19.5 32.5t31 12.5q17 0 26 -8t9 -19q0 -10 -7 -38t-7 -54q0 -68 69.5 -93t243.5 -25q252 0 340 11q72 8 106 33t39 78z" />
    <glyph glyph-name="kehehinitialfarsi" unicode="&#x6a9;" horiz-adv-x="514" arabic-form="initial" 
d="M0 113q79 -36 189 -36q30 0 60 5t60 17t49 36t19 58q0 41 -30.5 68.5t-67 39.5t-67 30.5t-30.5 41.5q0 13 14.5 60.5t38.5 105t63 102t79 44.5q25 0 43 -14t18 -41q0 -33 -26 -65.5t-66.5 -78t-63.5 -95.5q64 -17 106.5 -42.5t59.5 -55.5t22 -51.5t5 -47.5
q0 -93 -81 -143.5t-213 -50.5q-56 0 -181 22q-93 28 -93 45q0 9 22.5 30.5t33.5 21.5q15 0 37 -6z" />
    <glyph glyph-name="kehehmedialfarsi" unicode="&#x6a9;" horiz-adv-x="348" arabic-form="medial" 
d="M0 113q79 -36 189 -36q30 0 60 5t60 17t49 36t19 58q0 41 -30.5 68.5t-67 39.5t-67 30.5t-30.5 41.5q0 13 14.5 60.5t38.5 105t63 102t79 44.5q25 0 43 -14t18 -41q0 -33 -26 -65.5t-66.5 -78t-63.5 -95.5q64 -17 106.5 -42.5t59.5 -55.5t22 -51.5t5 -47.5
q0 -93 -81 -143.5t-213 -50.5q-56 0 -181 22q-93 28 -93 45q0 9 22.5 30.5t33.5 21.5q15 0 37 -6z" />
    <glyph glyph-name="gaffinalfarsi" unicode="&#x6af;" horiz-adv-x="852" arabic-form="final" 
d="M780 711l-16 -15q-62 -62 -105 -194q-10 -32 -15.5 -45t-16 -25t-25.5 -12q-36 0 -36 45q0 56 61 163q13 28 42 69q55 73 102 73q29 0 29 -25q0 -19 -20 -34zM881 193q0 41 -30.5 68.5t-67 39.5t-67 30.5t-30.5 41.5q0 13 14.5 60.5t38.5 105t63 102t79 44.5q25 0 43 -14
t18 -41q0 -33 -26 -65.5t-66.5 -78t-63.5 -95.5q64 -17 106.5 -42.5t59.5 -55.5t22 -51.5t5 -47.5q0 -93 -91 -150q-16 -9 -53 -26q-83 -36 -449 -36q-67 0 -117 3.5t-103.5 16.5t-87.5 34.5t-56 60.5t-22 92q0 18 2.5 36t9 38t19.5 32.5t31 12.5q17 0 26 -8t9 -19
q0 -10 -7 -38t-7 -54q0 -68 69.5 -93t243.5 -25q252 0 340 11q72 8 106 33t39 78z" />
    <glyph glyph-name="gafinitialfarsi" unicode="&#x6af;" horiz-adv-x="514" arabic-form="initial" 
d="M276 711l-16 -15q-62 -62 -105 -194q-10 -32 -15.5 -45t-16 -25t-25.5 -12q-36 0 -36 45q0 56 61 163q13 28 42 69q55 73 102 73q29 0 29 -25q0 -19 -20 -34zM0 113q79 -36 189 -36q30 0 60 5t60 17t49 36t19 58q0 41 -30.5 68.5t-67 39.5t-67 30.5t-30.5 41.5
q0 13 14.5 60.5t38.5 105t63 102t79 44.5q25 0 43 -14t18 -41q0 -33 -26 -65.5t-66.5 -78t-63.5 -95.5q64 -17 106.5 -42.5t59.5 -55.5t22 -51.5t5 -47.5q0 -93 -81 -143.5t-213 -50.5q-56 0 -181 22q-93 28 -93 45q0 9 22.5 30.5t33.5 21.5q15 0 37 -6z" />
    <glyph glyph-name="gafmedialfarsi" unicode="&#x6af;" horiz-adv-x="348" arabic-form="medial" 
d="M0 113q79 -36 189 -36q30 0 60 5t60 17t49 36t19 58q0 41 -30.5 68.5t-67 39.5t-67 30.5t-30.5 41.5q0 13 14.5 60.5t38.5 105t63 102t79 44.5q25 0 43 -14t18 -41q0 -33 -26 -65.5t-66.5 -78t-63.5 -95.5q64 -17 106.5 -42.5t59.5 -55.5t22 -51.5t5 -47.5
q0 -93 -81 -143.5t-213 -50.5q-56 0 -181 22q-93 28 -93 45q0 9 22.5 30.5t33.5 21.5q15 0 37 -6zM276 711l-16 -15q-62 -62 -105 -194q-10 -32 -15.5 -45t-16 -25t-25.5 -12q-36 0 -36 45q0 56 61 163q13 28 42 69q55 73 102 73q29 0 29 -25q0 -19 -20 -34z" />
    <glyph glyph-name="yehfinalfarsi" unicode="&#x6cc;" horiz-adv-x="699" arabic-form="final" 
d="M0 -98q0 131 65 131q21 0 39.5 -14t18.5 -38q0 -15 -13 -45.5t-13 -54.5q0 -53 65.5 -83.5t196.5 -30.5q140 0 249 42.5t109 110.5q0 32 -26.5 57.5t-63.5 41.5t-74.5 30.5t-64 33t-26.5 40.5q0 25 19.5 46t59.5 21q88 0 165 -85.5t77 -167.5q0 -107 -123.5 -181
t-327.5 -74q-332 0 -332 220z" />
    <glyph glyph-name="yehinitialfarsi" unicode="&#x6cc;" horiz-adv-x="407" arabic-form="initial" 
d="M123 -190q0 67 60 67q24 0 40 -17.5t16 -41.5q0 -26 -14.5 -42t-43.5 -16q-58 0 -58 50zM325 -240q-57 0 -57 58q0 25 15 42t42 17q58 0 58 -64q0 -53 -58 -53zM0 22q-41 11 -67 24t-26 21q0 7 21.5 29.5t34.5 22.5q21 0 37 -6q85 -30 146 -30q59 0 87 24.5t28 83.5
q0 51 -10.5 98t-10.5 51q0 24 11.5 37.5t45.5 13.5q61 0 61 -63q0 -13 -5 -70.5t-5 -110.5q0 -75 -38.5 -111t-134.5 -36q-78 0 -175 22z" />
    <glyph glyph-name="yehmedialfarsi" unicode="&#x6cc;" horiz-adv-x="322" arabic-form="medial" 
d="M116 -190q0 67 60 67q24 0 40 -17.5t16 -41.5q0 -26 -14.5 -42t-43.5 -16q-58 0 -58 50zM318 -240q-57 0 -57 58q0 25 15 42t42 17q58 0 58 -64q0 -53 -58 -53zM-37 119q13 1 37 -6q53 -30 144 -30q97 0 97 84q0 61 -16.5 104t-16.5 53q0 39 49 39q74 0 74 -180
q0 -99 -43 -143t-142 -44q-22 0 -46 3.5t-37.5 6.5t-36 9t-26.5 7q-39 12 -63 22q-30 12 -30 18q0 12 21 34.5t35 22.5z" />
    <glyph glyph-name="shaddasuperscriptalefabove" unicode="&#xfc63;" arabic-form="isolated" 
d="M164 879l-1 -15q0 -27 23 -27q25 0 25 52q0 19 1.5 29t8.5 18t20 8q20 0 25.5 -12.5t5.5 -35.5v-5v-8q0 -99 -71 -99q-24 0 -45 10l-21 10q-9 0 -31.5 -10t-38.5 -10q-30 0 -50 21.5t-20 60.5q0 10 -1 24t-1 18q0 20 8 27.5t27 7.5q30 0 30 -40q0 -8 -1 -21t-1 -18
q0 -27 24 -27q11 0 17.5 7.5t6.5 19.5q0 5 -2.5 17.5t-2.5 20.5q0 30 37 30q19 0 23.5 -11.5t4.5 -41.5zM106 1085v31l3 14q5 17 25 17q7 0 15 -2q20 -6 20 -48q0 -28 -6 -68q-3 -30 -3 -44q-2 -8 -3.5 -12.5t-6 -8t-11.5 -3.5q-9 0 -12 2q-14 4 -18 10.5t-4 30.5
q0 7 0.5 33t0.5 48z" />
    <glyph glyph-name="alefmaddaabovefinalarabic" unicode="&#x622;" horiz-adv-x="204" arabic-form="final" 
d="M-23 814q-22 0 -22 29q0 12 23.5 27.5t57.5 15.5q22 0 43 -12t30 -12q3 0 19.5 5t22.5 5q9 0 17 -8.5t8 -25.5q0 -19 -28 -31.5t-52 -12.5q-20 0 -36 16.5t-32 16.5q-9 0 -42 -12q-1 0 -4 -0.5t-5 -0.5zM204 113v-91q-75 16 -128 61t-53 100q0 100 -6 198t-12 159t-6 69
q0 102 66 102q68 0 68 -85q0 -40 -18 -144t-18 -202q0 -13 -1 -35.5t-0.5 -30.5t3 -23t9 -21.5t19 -17t31 -19.5t46.5 -20z" />
    <glyph glyph-name="alefhamzaabovefinalarabic" unicode="&#x623;" horiz-adv-x="204" arabic-form="final" 
d="M135 848h22q13 0 13 -23q0 -28 -39 -28q-46 0 -81 -2t-53 -4t-24 -2q-13 0 -13 21q0 18 12.5 28.5t52.5 10.5q-38 26 -38 69q0 42 28.5 62.5t66.5 20.5q80 0 80 -43q0 -20 -16 -20q-4 0 -20 4t-31 4q-18 0 -33.5 -9t-15.5 -33q0 -56 89 -56zM204 113v-91q-75 16 -128 61
t-53 100q0 100 -6 198t-12 159t-6 69q0 102 66 102q68 0 68 -85q0 -40 -18 -144t-18 -202q0 -13 -1 -35.5t-0.5 -30.5t3 -23t9 -21.5t19 -17t31 -19.5t46.5 -20z" />
    <glyph glyph-name="wawhamzaabovefinalarabic" unicode="&#x624;" horiz-adv-x="459" arabic-form="final" 
d="M327 544h22q13 0 13 -23q0 -28 -39 -28q-46 0 -81 -2t-53 -4t-24 -2q-13 0 -13 21q0 18 12.5 28.5t52.5 10.5q-38 26 -38 69q0 42 28.5 62.5t66.5 20.5q80 0 80 -43q0 -20 -16 -20q-4 0 -20 4t-31 4q-18 0 -33.5 -9t-15.5 -33q0 -56 89 -56zM143 200q0 -50 27.5 -81.5
t86.5 -31.5q47 0 75 29t28 89q0 57 -30 91t-74 34q-51 0 -82 -36.5t-31 -93.5zM49 -182q0 58 76 58q100 0 167.5 35t67.5 91q0 25 -14 25q-2 0 -32.5 -12.5t-67.5 -12.5q-90 0 -139.5 51.5t-49.5 131.5q0 100 58 161t142 61q202 0 202 -307q0 -162 -88 -250.5t-236 -88.5
q-48 0 -67 14.5t-19 42.5z" />
    <glyph glyph-name="alefhamzabelowfinalarabic" unicode="&#x625;" horiz-adv-x="204" arabic-form="final" 
d="M135 -231h22q13 0 13 -23q0 -28 -39 -28q-46 0 -81 -2t-53 -4t-24 -2q-13 0 -13 21q0 18 12.5 28.5t52.5 10.5q-38 26 -38 69q0 42 28.5 62.5t66.5 20.5q80 0 80 -43q0 -20 -16 -20q-4 0 -20 4t-31 4q-18 0 -33.5 -9t-15.5 -33q0 -56 89 -56zM204 113v-91q-75 16 -128 61
t-53 100q0 100 -6 198t-12 159t-6 69q0 102 66 102q68 0 68 -85q0 -40 -18 -144t-18 -202q0 -13 -1 -35.5t-0.5 -30.5t3 -23t9 -21.5t19 -17t31 -19.5t46.5 -20z" />
    <glyph glyph-name="yehhamzaabovefinalarabic" unicode="&#x626;" horiz-adv-x="699" arabic-form="final" 
d="M135 170h22q13 0 13 -23q0 -28 -39 -28q-46 0 -81 -2t-53 -4t-24 -2q-13 0 -13 21q0 18 12.5 28.5t52.5 10.5q-38 26 -38 69q0 42 28.5 62.5t66.5 20.5q80 0 80 -43q0 -20 -16 -20q-4 0 -20 4t-31 4q-18 0 -33.5 -9t-15.5 -33q0 -56 89 -56zM0 -98q0 131 65 131
q21 0 39.5 -14t18.5 -38q0 -15 -13 -45.5t-13 -54.5q0 -53 65.5 -83.5t196.5 -30.5q140 0 249 42.5t109 110.5q0 32 -26.5 57.5t-63.5 41.5t-74.5 30.5t-64 33t-26.5 40.5q0 25 19.5 46t59.5 21q88 0 165 -85.5t77 -167.5q0 -107 -123.5 -181t-327.5 -74q-332 0 -332 220z
" />
    <glyph glyph-name="yehhamzaaboveinitialarabic" unicode="&#x626;" horiz-adv-x="407" arabic-form="initial" 
d="M367 528h22q13 0 13 -23q0 -28 -39 -28q-46 0 -81 -2t-53 -4t-24 -2q-13 0 -13 21q0 18 12.5 28.5t52.5 10.5q-38 26 -38 69q0 42 28.5 62.5t66.5 20.5q80 0 80 -43q0 -20 -16 -20q-4 0 -20 4t-31 4q-18 0 -33.5 -9t-15.5 -33q0 -56 89 -56zM0 22q-41 11 -67 24t-26 21
q0 7 21.5 29.5t34.5 22.5q21 0 37 -6q85 -30 146 -30q59 0 87 24.5t28 83.5q0 51 -10.5 98t-10.5 51q0 24 11.5 37.5t45.5 13.5q61 0 61 -63q0 -13 -5 -70.5t-5 -110.5q0 -75 -38.5 -111t-134.5 -36q-78 0 -175 22z" />
    <glyph glyph-name="yehhamzaabovemedialarabic" unicode="&#x626;" horiz-adv-x="322" arabic-form="medial" 
d="M-37 119q13 1 37 -6q53 -30 144 -30q97 0 97 84q0 61 -16.5 104t-16.5 53q0 39 49 39q74 0 74 -180q0 -99 -43 -143t-142 -44q-22 0 -46 3.5t-37.5 6.5t-36 9t-26.5 7q-39 12 -63 22q-30 12 -30 18q0 12 21 34.5t35 22.5zM328 528h22q13 0 13 -23q0 -28 -39 -28
q-46 0 -81 -2t-53 -4t-24 -2q-13 0 -13 21q0 18 12.5 28.5t52.5 10.5q-38 26 -38 69q0 42 28.5 62.5t66.5 20.5q80 0 80 -43q0 -20 -16 -20q-4 0 -20 4t-31 4q-18 0 -33.5 -9t-15.5 -33q0 -56 89 -56z" />
    <glyph glyph-name="aleffinalarabic" unicode="&#x627;" horiz-adv-x="204" arabic-form="final" 
d="M204 113v-91q-75 16 -128 61t-53 100q0 100 -6 198t-12 159t-6 69q0 102 66 102q68 0 68 -85q0 -40 -18 -144t-18 -202q0 -13 -1 -35.5t-0.5 -30.5t3 -23t9 -21.5t19 -17t31 -19.5t46.5 -20z" />
    <glyph glyph-name="behfinalarabic" unicode="&#x628;" horiz-adv-x="821" arabic-form="final" 
d="M0 189q0 18 2.5 36t9 38t19.5 32.5t31 12.5q17 0 26 -8t9 -19q0 -10 -7 -38t-7 -54q0 -68 69.5 -93t243.5 -25q141 0 212 10.5t99.5 35.5t28.5 74q0 51 -10.5 98t-10.5 51q0 24 11.5 37.5t45.5 13.5q35 0 48 -16.5t13 -46.5q0 -13 -5 -70.5t-5 -110.5q0 -22 -1.5 -35
t-10 -33t-24.5 -31.5t-48 -25.5t-77.5 -21.5t-115.5 -13t-160 -5.5q-67 0 -117 3.5t-103.5 16.5t-87.5 34.5t-56 60.5t-22 92zM371 -144q0 27 15 44t45 17q36 0 48 -16t12 -45q0 -59 -60 -59t-60 59z" />
    <glyph glyph-name="behinitialarabic" unicode="&#x628;" horiz-adv-x="407" arabic-form="initial" 
d="M193 -115q0 27 15 44t45 17q36 0 48 -16t12 -45q0 -59 -60 -59t-60 59zM0 22q-41 11 -67 24t-26 21q0 7 21.5 29.5t34.5 22.5q21 0 37 -6q85 -30 146 -30q59 0 87 24.5t28 83.5q0 51 -10.5 98t-10.5 51q0 24 11.5 37.5t45.5 13.5q61 0 61 -63q0 -13 -5 -70.5t-5 -110.5
q0 -75 -38.5 -111t-134.5 -36q-78 0 -175 22z" />
    <glyph glyph-name="behmedialarabic" unicode="&#x628;" horiz-adv-x="322" arabic-form="medial" 
d="M186 -190q0 67 60 67q24 0 40 -17.5t16 -41.5q0 -26 -14.5 -42t-43.5 -16q-58 0 -58 50zM-37 119q13 1 37 -6q53 -30 144 -30q97 0 97 84q0 61 -16.5 104t-16.5 53q0 39 49 39q74 0 74 -180q0 -99 -43 -143t-142 -44q-22 0 -46 3.5t-37.5 6.5t-36 9t-26.5 7
q-39 12 -63 22q-30 12 -30 18q0 12 21 34.5t35 22.5z" />
    <glyph glyph-name="tehmarbutafinalarabic" unicode="&#x629;" horiz-adv-x="445" arabic-form="final" 
d="M445 113v-91q-27 4 -75 26t-65 23q-4 0 -42.5 -15t-90.5 -15q-23 0 -48.5 6t-55 21t-49 47.5t-19.5 77.5q0 60 30.5 102.5t73.5 62t86 30.5t73.5 17t30.5 13q0 8 -8 53v2q0 27 48 27q58 0 58 -32q-14 -135 -14 -209q-1 -45 12.5 -79.5t27.5 -48t27 -18.5zM84 203
q0 -42 31 -60.5t71 -18.5q62 0 86.5 24.5t24.5 84.5q0 47 -15.5 68.5t-52.5 21.5q-60 0 -102.5 -35t-42.5 -85zM83 636q0 27 15 46t45 19q25 0 40.5 -16.5t15.5 -41.5t-14.5 -41t-43.5 -16q-58 0 -58 50zM227 643q0 25 15.5 41.5t41.5 16.5q58 0 58 -62q0 -53 -58 -53
q-28 0 -42.5 12.5t-14.5 44.5z" />
    <glyph glyph-name="tehfinalarabic" unicode="&#x62a;" horiz-adv-x="821" arabic-form="final" 
d="M277 551q0 29 14.5 47.5t45.5 18.5q24 0 39.5 -16.5t15.5 -41.5q0 -26 -14 -42t-43 -16q-58 0 -58 50zM420 559q0 25 15.5 41.5t42.5 16.5q57 0 57 -63q0 -53 -57 -53q-58 0 -58 58zM0 189q0 18 2.5 36t9 38t19.5 32.5t31 12.5q17 0 26 -8t9 -19q0 -10 -7 -38t-7 -54
q0 -68 69.5 -93t243.5 -25q141 0 212 10.5t99.5 35.5t28.5 74q0 51 -10.5 98t-10.5 51q0 24 11.5 37.5t45.5 13.5q35 0 48 -16.5t13 -46.5q0 -13 -5 -70.5t-5 -110.5q0 -22 -1.5 -35t-10 -33t-24.5 -31.5t-48 -25.5t-77.5 -21.5t-115.5 -13t-160 -5.5q-67 0 -117 3.5
t-103.5 16.5t-87.5 34.5t-56 60.5t-22 92z" />
    <glyph glyph-name="tehinitialarabic" unicode="&#x62a;" horiz-adv-x="407" arabic-form="initial" 
d="M168 506q0 29 14.5 47.5t45.5 18.5q24 0 39.5 -16.5t15.5 -41.5q0 -26 -14 -42t-43 -16q-58 0 -58 50zM311 514q0 25 15.5 41.5t42.5 16.5q57 0 57 -63q0 -53 -57 -53q-58 0 -58 58zM0 22q-41 11 -67 24t-26 21q0 7 21.5 29.5t34.5 22.5q21 0 37 -6q85 -30 146 -30
q59 0 87 24.5t28 83.5q0 51 -10.5 98t-10.5 51q0 24 11.5 37.5t45.5 13.5q61 0 61 -63q0 -13 -5 -70.5t-5 -110.5q0 -75 -38.5 -111t-134.5 -36q-78 0 -175 22z" />
    <glyph glyph-name="tehmedialarabic" unicode="&#x62a;" horiz-adv-x="322" arabic-form="medial" 
d="M126 506q0 29 14.5 47.5t45.5 18.5q24 0 39.5 -16.5t15.5 -41.5q0 -26 -14 -42t-43 -16q-58 0 -58 50zM269 514q0 25 15.5 41.5t42.5 16.5q57 0 57 -63q0 -53 -57 -53q-58 0 -58 58zM-37 119q13 1 37 -6q53 -30 144 -30q97 0 97 84q0 61 -16.5 104t-16.5 53q0 39 49 39
q74 0 74 -180q0 -99 -43 -143t-142 -44q-22 0 -46 3.5t-37.5 6.5t-36 9t-26.5 7q-39 12 -63 22q-30 12 -30 18q0 12 21 34.5t35 22.5z" />
    <glyph glyph-name="thehfinalarabic" unicode="&#x62b;" horiz-adv-x="821" arabic-form="final" 
d="M0 189q0 18 2.5 36t9 38t19.5 32.5t31 12.5q17 0 26 -8t9 -19q0 -10 -7 -38t-7 -54q0 -68 69.5 -93t243.5 -25q141 0 212 10.5t99.5 35.5t28.5 74q0 51 -10.5 98t-10.5 51q0 24 11.5 37.5t45.5 13.5q35 0 48 -16.5t13 -46.5q0 -13 -5 -70.5t-5 -110.5q0 -22 -1.5 -35
t-10 -33t-24.5 -31.5t-48 -25.5t-77.5 -21.5t-115.5 -13t-160 -5.5q-67 0 -117 3.5t-103.5 16.5t-87.5 34.5t-56 60.5t-22 92zM349 682q0 29 14.5 47.5t45.5 18.5q24 0 39.5 -16.5t15.5 -41.5q0 -26 -14 -42t-43 -16q-58 0 -58 50zM277 551q0 29 14.5 47.5t45.5 18.5
q24 0 39.5 -16.5t15.5 -41.5q0 -26 -14 -42t-43 -16q-58 0 -58 50zM420 559q0 25 15.5 41.5t42.5 16.5q57 0 57 -63q0 -53 -57 -53q-58 0 -58 58z" />
    <glyph glyph-name="thehinitialarabic" unicode="&#x62b;" horiz-adv-x="407" arabic-form="initial" 
d="M240 637q0 29 14.5 47.5t45.5 18.5q24 0 39.5 -16.5t15.5 -41.5q0 -26 -14 -42t-43 -16q-58 0 -58 50zM168 506q0 29 14.5 47.5t45.5 18.5q24 0 39.5 -16.5t15.5 -41.5q0 -26 -14 -42t-43 -16q-58 0 -58 50zM311 514q0 25 15.5 41.5t42.5 16.5q57 0 57 -63q0 -53 -57 -53
q-58 0 -58 58zM0 22q-41 11 -67 24t-26 21q0 7 21.5 29.5t34.5 22.5q21 0 37 -6q85 -30 146 -30q59 0 87 24.5t28 83.5q0 51 -10.5 98t-10.5 51q0 24 11.5 37.5t45.5 13.5q61 0 61 -63q0 -13 -5 -70.5t-5 -110.5q0 -75 -38.5 -111t-134.5 -36q-78 0 -175 22z" />
    <glyph glyph-name="thehmedialarabic" unicode="&#x62b;" horiz-adv-x="322" arabic-form="medial" 
d="M198 637q0 29 14.5 47.5t45.5 18.5q24 0 39.5 -16.5t15.5 -41.5q0 -26 -14 -42t-43 -16q-58 0 -58 50zM126 506q0 29 14.5 47.5t45.5 18.5q24 0 39.5 -16.5t15.5 -41.5q0 -26 -14 -42t-43 -16q-58 0 -58 50zM269 514q0 25 15.5 41.5t42.5 16.5q57 0 57 -63q0 -53 -57 -53
q-58 0 -58 58zM-37 119q13 1 37 -6q53 -30 144 -30q97 0 97 84q0 61 -16.5 104t-16.5 53q0 39 49 39q74 0 74 -180q0 -99 -43 -143t-142 -44q-22 0 -46 3.5t-37.5 6.5t-36 9t-26.5 7q-39 12 -63 22q-30 12 -30 18q0 12 21 34.5t35 22.5z" />
    <glyph glyph-name="jeemfinalarabic" unicode="&#x62c;" horiz-adv-x="512" arabic-form="final" 
d="M195 -122q0 27 15 44t45 17q36 0 48 -16t12 -45q0 -59 -60 -59t-60 59zM0 -128q0 64 23 112t59 74.5t80 45t88.5 29.5t80.5 21.5t59 27t23 41.5q0 46 -40.5 84t-121.5 38q-28 0 -63.5 -10.5t-44.5 -10.5q-8 0 -15.5 2t-17.5 14t-10 34q0 46 43 70.5t109 24.5
q62 0 113.5 -34.5t82.5 -87t47.5 -108.5t16.5 -105q0 -35 -31 -57t-77 -31t-100 -21.5t-100 -26t-77 -47t-31 -82.5q0 -53 37.5 -90t108.5 -37q54 0 101 27t72 27t39.5 -20t14.5 -44q0 -51 -56.5 -75t-141.5 -24q-133 0 -202 71t-69 168z" />
    <glyph glyph-name="jeeminitialarabic" unicode="&#x62c;" horiz-adv-x="650" arabic-form="initial" 
d="M268 -184q0 27 15 44t45 17q36 0 48 -16t12 -45q0 -59 -60 -59t-60 59zM-37 119q7 1 14 0.5t10.5 -2t7.5 -3t5 -1.5q27 -11 42.5 -16.5t74 -13.5t137.5 -8q44 0 82 6t72.5 20.5t54.5 42.5t20 67q0 53 -37.5 93.5t-113.5 40.5q-37 0 -73.5 -10.5t-45.5 -10.5q-8 0 -15.5 2
t-17.5 14t-10 34q0 47 46 71t113 24q87 0 141 -55t70 -137q9 -49 22.5 -82t23.5 -44.5t17.5 -25t7.5 -28.5q0 -46 -98 -79.5t-238 -33.5q-56 0 -111 7q-98 10 -164 31q-64 19 -93 41q-2 11 20.5 33.5t35.5 22.5z" />
    <glyph glyph-name="jeemmedialarabic" unicode="&#x62c;" horiz-adv-x="567" arabic-form="medial" 
d="M274 -184q0 27 15 44t45 17q36 0 48 -16t12 -45q0 -59 -60 -59t-60 59zM-37 121q8 0 37 -8q37 -12 73 -22q116 -27 215 -27q87 0 139.5 36.5t52.5 110.5q0 49 -33.5 91.5t-107.5 42.5q-33 0 -65 -13.5t-43 -13.5q-48 0 -48 60q0 45 39 68t93 23q62 0 110.5 -25.5
t75 -61.5t43 -82.5t21.5 -82t5 -67.5q0 -104 -67.5 -139.5t-210.5 -35.5q-113 0 -292 47q-29 9 -54 19q-38 16 -38 24q0 14 19.5 33t35.5 23z" />
    <glyph glyph-name="hahfinalarabic" unicode="&#x62d;" horiz-adv-x="512" arabic-form="final" 
d="M0 -128q0 64 23 112t59 74.5t80 45t88.5 29.5t80.5 21.5t59 27t23 41.5q0 46 -40.5 84t-121.5 38q-28 0 -63.5 -10.5t-44.5 -10.5q-8 0 -15.5 2t-17.5 14t-10 34q0 46 43 70.5t109 24.5q62 0 113.5 -34.5t82.5 -87t47.5 -108.5t16.5 -105q0 -35 -31 -57t-77 -31
t-100 -21.5t-100 -26t-77 -47t-31 -82.5q0 -53 37.5 -90t108.5 -37q54 0 101 27t72 27t39.5 -20t14.5 -44q0 -51 -56.5 -75t-141.5 -24q-133 0 -202 71t-69 168z" />
    <glyph glyph-name="hahinitialarabic" unicode="&#x62d;" horiz-adv-x="650" arabic-form="initial" 
d="M-37 119q7 1 14 0.5t10.5 -2t7.5 -3t5 -1.5q27 -11 42.5 -16.5t74 -13.5t137.5 -8q44 0 82 6t72.5 20.5t54.5 42.5t20 67q0 53 -37.5 93.5t-113.5 40.5q-37 0 -73.5 -10.5t-45.5 -10.5q-8 0 -15.5 2t-17.5 14t-10 34q0 47 46 71t113 24q87 0 141 -55t70 -137
q9 -49 22.5 -82t23.5 -44.5t17.5 -25t7.5 -28.5q0 -46 -98 -79.5t-238 -33.5q-56 0 -111 7q-98 10 -164 31q-64 19 -93 41q-2 11 20.5 33.5t35.5 22.5z" />
    <glyph glyph-name="hahmedialarabic" unicode="&#x62d;" horiz-adv-x="567" arabic-form="medial" 
d="M-37 121q8 0 37 -8q37 -12 73 -22q116 -27 215 -27q87 0 139.5 36.5t52.5 110.5q0 49 -33.5 91.5t-107.5 42.5q-33 0 -65 -13.5t-43 -13.5q-48 0 -48 60q0 45 39 68t93 23q62 0 110.5 -25.5t75 -61.5t43 -82.5t21.5 -82t5 -67.5q0 -104 -67.5 -139.5t-210.5 -35.5
q-113 0 -292 47q-29 9 -54 19q-38 16 -38 24q0 14 19.5 33t35.5 23z" />
    <glyph glyph-name="khahfinalarabic" unicode="&#x62e;" horiz-adv-x="512" arabic-form="final" 
d="M191 612q0 27 15 44t45 17q36 0 48 -16t12 -45q0 -59 -60 -59t-60 59zM0 -128q0 64 23 112t59 74.5t80 45t88.5 29.5t80.5 21.5t59 27t23 41.5q0 46 -40.5 84t-121.5 38q-28 0 -63.5 -10.5t-44.5 -10.5q-8 0 -15.5 2t-17.5 14t-10 34q0 46 43 70.5t109 24.5
q62 0 113.5 -34.5t82.5 -87t47.5 -108.5t16.5 -105q0 -35 -31 -57t-77 -31t-100 -21.5t-100 -26t-77 -47t-31 -82.5q0 -53 37.5 -90t108.5 -37q54 0 101 27t72 27t39.5 -20t14.5 -44q0 -51 -56.5 -75t-141.5 -24q-133 0 -202 71t-69 168z" />
    <glyph glyph-name="khahinitialarabic" unicode="&#x62e;" horiz-adv-x="650" arabic-form="initial" 
d="M268 612q0 27 15 44t45 17q36 0 48 -16t12 -45q0 -59 -60 -59t-60 59zM-37 119q7 1 14 0.5t10.5 -2t7.5 -3t5 -1.5q27 -11 42.5 -16.5t74 -13.5t137.5 -8q44 0 82 6t72.5 20.5t54.5 42.5t20 67q0 53 -37.5 93.5t-113.5 40.5q-37 0 -73.5 -10.5t-45.5 -10.5q-8 0 -15.5 2
t-17.5 14t-10 34q0 47 46 71t113 24q87 0 141 -55t70 -137q9 -49 22.5 -82t23.5 -44.5t17.5 -25t7.5 -28.5q0 -46 -98 -79.5t-238 -33.5q-56 0 -111 7q-98 10 -164 31q-64 19 -93 41q-2 11 20.5 33.5t35.5 22.5z" />
    <glyph glyph-name="khahmedialarabic" unicode="&#x62e;" horiz-adv-x="567" arabic-form="medial" 
d="M274 612q0 27 15 44t45 17q36 0 48 -16t12 -45q0 -59 -60 -59t-60 59zM-37 121q8 0 37 -8q37 -12 73 -22q116 -27 215 -27q87 0 139.5 36.5t52.5 110.5q0 49 -33.5 91.5t-107.5 42.5q-33 0 -65 -13.5t-43 -13.5q-48 0 -48 60q0 45 39 68t93 23q62 0 110.5 -25.5t75 -61.5
t43 -82.5t21.5 -82t5 -67.5q0 -104 -67.5 -139.5t-210.5 -35.5q-113 0 -292 47q-29 9 -54 19q-38 16 -38 24q0 14 19.5 33t35.5 23z" />
    <glyph glyph-name="dalfinalarabic" unicode="&#x62f;" horiz-adv-x="370" arabic-form="final" 
d="M113 -35q-32 12 -48 30t-16 51q0 31 7.5 48.5t19.5 17.5t39 -13t69.5 -25.5t91.5 -12.5q43 0 72.5 19t30.5 56q-1 33 -33 68t-69 58.5t-68 48.5t-31 42q0 31 30.5 58t64.5 27q42 0 87 -47t74 -114t29 -125q0 -43 -10 -76t-34 -63t-71.5 -46t-115.5 -16q-74 0 -119 14z
" />
    <glyph glyph-name="thalfinalarabic" unicode="&#x630;" horiz-adv-x="370" arabic-form="final" 
d="M113 -35q-32 12 -48 30t-16 51q0 31 7.5 48.5t19.5 17.5t39 -13t69.5 -25.5t91.5 -12.5q43 0 72.5 19t30.5 56q-1 33 -33 68t-69 58.5t-68 48.5t-31 42q0 31 30.5 58t64.5 27q42 0 87 -47t74 -114t29 -125q0 -43 -10 -76t-34 -63t-71.5 -46t-115.5 -16q-74 0 -119 14z
M213 589q0 27 15 44t45 17q36 0 48 -16t12 -45q0 -59 -60 -59t-60 59z" />
    <glyph glyph-name="rehfinalarabic" unicode="&#x631;" horiz-adv-x="313" arabic-form="final" 
d="M69 -62q38 6 60 13.5t46 25t35 51t11 85.5q0 48 -19 116.5t-19 95.5q0 31 18.5 48.5t54.5 17.5q57 0 57 -63q0 -12 -5 -76.5t-5 -117.5q0 -154 -61 -241.5t-170 -87.5q-77 0 -77 63q0 13 4 25.5t22 26.5t48 18z" />
    <glyph glyph-name="zainfinalarabic" unicode="&#x632;" horiz-adv-x="313" arabic-form="final" 
d="M198 542q0 27 15 44t45 17q36 0 48 -16t12 -45q0 -59 -60 -59t-60 59zM69 -62q38 6 60 13.5t46 25t35 51t11 85.5q0 48 -19 116.5t-19 95.5q0 31 18.5 48.5t54.5 17.5q57 0 57 -63q0 -12 -5 -76.5t-5 -117.5q0 -154 -61 -241.5t-170 -87.5q-77 0 -77 63q0 13 4 25.5
t22 26.5t48 18z" />
    <glyph glyph-name="seenfinalarabic" unicode="&#x633;" horiz-adv-x="1162" arabic-form="final" 
d="M538 -97q-75 -104 -251 -104q-143 0 -215 76.5t-72 200.5q0 168 76 168q29 0 49.5 -16.5t20.5 -37.5q0 -14 -22.5 -57t-22.5 -89q0 -77 51.5 -114t138.5 -37q96 0 150 42.5t54 110.5q0 54 -25.5 107t-25.5 79q0 28 17 45t48 17q56 0 74 -53q9 -28 10 -46q2 -23 20 -55
q24 -52 87 -52q86 0 86 80q0 32 -8 74.5t-8 52.5q0 55 46 55q51 0 51 -52q0 -4 2 -50.5t2 -79.5q0 -38 28 -69t70 -31q35 0 61 26t26 87q0 57 -14.5 103.5t-14.5 54.5q0 10 2 17.5t8 18t21 16t39 5.5q46 0 61 -24t15 -64q0 -19 -4.5 -62.5t-4.5 -72.5q0 -63 -11.5 -104.5
t-34.5 -60t-45.5 -25t-55.5 -6.5q-42 0 -85.5 16t-70.5 46q-35 -28 -61 -39t-68 -11q-45 0 -82 21t-56 47q0 -1 -1.5 -11t-2.5 -17.5t-4 -20t-7 -24.5t-9.5 -26t-13.5 -28t-18 -27z" />
    <glyph glyph-name="seeninitialarabic" unicode="&#x633;" horiz-adv-x="954" arabic-form="initial" 
d="M-37 119q7 1 14.5 0t14 -3.5t8.5 -2.5q71 -27 133 -27q50 0 72.5 22.5t22.5 77.5q0 12 -1.5 25t-1.5 30q0 55 68 55q55 0 55 -42q0 -11 -5 -33t-5 -41q0 -43 26.5 -67.5t67.5 -24.5q86 0 86 80q0 32 -8 74.5t-8 52.5q0 55 46 55q51 0 51 -52q0 -4 2 -50.5t2 -79.5
q0 -38 28 -69t70 -31q35 0 61 26t26 87q0 57 -14.5 103.5t-14.5 54.5q0 10 2 17.5t8 18t21 16t39 5.5q46 0 61 -24t15 -64q0 -19 -4.5 -62t-4.5 -73q0 -63 -11.5 -104.5t-34.5 -60t-45.5 -25t-55.5 -6.5q-42 0 -85.5 16t-70.5 46q-35 -28 -61 -39t-68 -11q-45 0 -82 21
t-56 47q-38 -41 -80.5 -55t-107.5 -6q-71 4 -138 26q-92 36 -93 40q0 11 22 34t34 23z" />
    <glyph glyph-name="seenmedialarabic" unicode="&#x633;" horiz-adv-x="894" arabic-form="medial" 
d="M-37 119q7 1 14.5 0t14 -3.5t8.5 -2.5q71 -27 133 -27q50 0 72.5 22.5t22.5 77.5q0 12 -1.5 25t-1.5 30q0 55 68 55q55 0 55 -42q0 -11 -5 -33t-5 -41q0 -43 26.5 -67.5t67.5 -24.5q86 0 86 80q0 32 -8 74.5t-8 52.5q0 55 46 55q51 0 51 -52q0 -4 2 -50.5t2 -79.5
q0 -38 28 -69t70 -31q35 0 61 26t26 87q0 57 -14.5 103.5t-14.5 54.5q0 10 2 17.5t8 18t21 16t39 5.5q46 0 61 -24t15 -64q0 -19 -4.5 -62t-4.5 -73q0 -63 -11.5 -104.5t-34.5 -60t-45.5 -25t-55.5 -6.5q-42 0 -85.5 16t-70.5 46q-35 -28 -61 -39t-68 -11q-45 0 -82 21
t-56 47q-38 -41 -80.5 -55t-107.5 -6q-71 4 -138 26q-92 36 -93 40q0 11 22 34t34 23z" />
    <glyph glyph-name="sheenfinalarabic" unicode="&#x634;" horiz-adv-x="1162" arabic-form="final" 
d="M751 503q-58 0 -58 59q0 21 14 39t39 18q36 0 49 -15t13 -42q0 -26 -14 -42.5t-43 -16.5zM893 503q-31 0 -44 13t-13 46q0 24 15.5 40.5t41.5 16.5q58 0 58 -57q0 -59 -58 -59zM822 633q-57 0 -57 58q0 23 13.5 40.5t39.5 17.5q37 0 49.5 -15t12.5 -43q0 -25 -14.5 -41.5
t-43.5 -16.5zM538 -97q-75 -104 -251 -104q-143 0 -215 76.5t-72 200.5q0 168 76 168q29 0 49.5 -16.5t20.5 -37.5q0 -14 -22.5 -57t-22.5 -89q0 -77 51.5 -114t138.5 -37q96 0 150 42.5t54 110.5q0 54 -25.5 107t-25.5 79q0 28 17 45t48 17q56 0 74 -53q9 -28 10 -46
q2 -23 20 -55q24 -52 87 -52q86 0 86 80q0 32 -8 74.5t-8 52.5q0 55 46 55q51 0 51 -52q0 -4 2 -50.5t2 -79.5q0 -38 28 -69t70 -31q35 0 61 26t26 87q0 57 -14.5 103.5t-14.5 54.5q0 10 2 17.5t8 18t21 16t39 5.5q46 0 61 -24t15 -64q0 -19 -4.5 -62.5t-4.5 -72.5
q0 -63 -11.5 -104.5t-34.5 -60t-45.5 -25t-55.5 -6.5q-42 0 -85.5 16t-70.5 46q-35 -28 -61 -39t-68 -11q-45 0 -82 21t-56 47q0 -1 -1.5 -11t-2.5 -17.5t-4 -20t-7 -24.5t-9.5 -26t-13.5 -28t-18 -27z" />
    <glyph glyph-name="sheeninitialarabic" unicode="&#x634;" horiz-adv-x="954" arabic-form="initial" 
d="M483 503q-58 0 -58 59q0 21 14 39t39 18q36 0 49 -15t13 -42q0 -26 -14 -42.5t-43 -16.5zM625 503q-31 0 -44 13t-13 46q0 24 15.5 40.5t41.5 16.5q58 0 58 -57q0 -59 -58 -59zM554 633q-57 0 -57 58q0 23 13.5 40.5t39.5 17.5q37 0 49.5 -15t12.5 -43q0 -25 -14.5 -41.5
t-43.5 -16.5zM-37 119q7 1 14.5 0t14 -3.5t8.5 -2.5q71 -27 133 -27q50 0 72.5 22.5t22.5 77.5q0 12 -1.5 25t-1.5 30q0 55 68 55q55 0 55 -42q0 -11 -5 -33t-5 -41q0 -43 26.5 -67.5t67.5 -24.5q86 0 86 80q0 32 -8 74.5t-8 52.5q0 55 46 55q51 0 51 -52q0 -4 2 -50.5
t2 -79.5q0 -38 28 -69t70 -31q35 0 61 26t26 87q0 57 -14.5 103.5t-14.5 54.5q0 10 2 17.5t8 18t21 16t39 5.5q46 0 61 -24t15 -64q0 -19 -4.5 -62t-4.5 -73q0 -63 -11.5 -104.5t-34.5 -60t-45.5 -25t-55.5 -6.5q-42 0 -85.5 16t-70.5 46q-35 -28 -61 -39t-68 -11
q-45 0 -82 21t-56 47q-38 -41 -80.5 -55t-107.5 -6q-71 4 -138 26q-92 36 -93 40q0 11 22 34t34 23z" />
    <glyph glyph-name="sheenmedialarabic" unicode="&#x634;" horiz-adv-x="894" arabic-form="medial" 
d="M483 503q-58 0 -58 59q0 21 14 39t39 18q36 0 49 -15t13 -42q0 -26 -14 -42.5t-43 -16.5zM625 503q-31 0 -44 13t-13 46q0 24 15.5 40.5t41.5 16.5q58 0 58 -57q0 -59 -58 -59zM554 633q-57 0 -57 58q0 23 13.5 40.5t39.5 17.5q37 0 49.5 -15t12.5 -43q0 -25 -14.5 -41.5
t-43.5 -16.5zM-37 119q7 1 14.5 0t14 -3.5t8.5 -2.5q71 -27 133 -27q50 0 72.5 22.5t22.5 77.5q0 12 -1.5 25t-1.5 30q0 55 68 55q55 0 55 -42q0 -11 -5 -33t-5 -41q0 -43 26.5 -67.5t67.5 -24.5q86 0 86 80q0 32 -8 74.5t-8 52.5q0 55 46 55q51 0 51 -52q0 -4 2 -50.5
t2 -79.5q0 -38 28 -69t70 -31q35 0 61 26t26 87q0 57 -14.5 103.5t-14.5 54.5q0 10 2 17.5t8 18t21 16t39 5.5q46 0 61 -24t15 -64q0 -19 -4.5 -62t-4.5 -73q0 -63 -11.5 -104.5t-34.5 -60t-45.5 -25t-55.5 -6.5q-42 0 -85.5 16t-70.5 46q-35 -28 -61 -39t-68 -11
q-45 0 -82 21t-56 47q-38 -41 -80.5 -55t-107.5 -6q-71 4 -138 26q-92 36 -93 40q0 11 22 34t34 23z" />
    <glyph glyph-name="sadfinalarabic" unicode="&#x635;" horiz-adv-x="1297" arabic-form="final" 
d="M594 179l1 -16q6 -31 21 -43t53 -12q19 0 33.5 8t26.5 27.5t20.5 38t24 54t28.5 61.5q42 85 115.5 131t168.5 46q118 0 182.5 -66t64.5 -168q0 -247 -384 -247q-173 0 -291 33q-43 13 -64 23q0 -1 -2 -12.5t-5.5 -25.5t-9 -31.5t-16 -38t-23.5 -38.5q-75 -104 -251 -104
q-143 0 -215 76.5t-72 200.5q0 168 76 168q29 0 49.5 -16.5t20.5 -37.5q0 -14 -22.5 -57t-22.5 -89q0 -77 51.5 -114t138.5 -37q96 0 150 42.5t54 110.5q0 54 -25.5 107t-25.5 79q0 28 17 45t48 17q43 0 62.5 -28t22.5 -87zM825 163q0 -40 43 -62t126 -22q105 0 166.5 37
t61.5 100q0 57 -43.5 97.5t-124.5 40.5q-95 0 -162 -59.5t-67 -131.5z" />
    <glyph glyph-name="sadinitialarabic" unicode="&#x635;" horiz-adv-x="1072" arabic-form="initial" 
d="M515 163q0 -40 43 -62t126 -22q105 0 166.5 37t61.5 100q0 57 -43.5 97.5t-124.5 40.5q-95 0 -162 -59.5t-67 -131.5zM-37 119q13 2 37 -6q15 -5 47 -21t66 -16q43 0 61 24.5t18 84.5q0 19 -3 40t-3 32q0 43 51 43q47 0 47 -39q0 -7 -3.5 -30t-3.5 -43q0 -80 82 -80
q19 0 33.5 8t26.5 27.5t20.5 38t24 54t28.5 61.5q42 85 115 131t169 46q118 0 182.5 -66t64.5 -168q0 -247 -384 -247q-100 0 -178 10.5t-113 22.5t-61.5 22.5t-35.5 10.5q-11 0 -22 -11t-48 -29q-40 -17 -79 -17q-38 0 -102 20q-3 1 -13 4t-17 6q-63 26 -63 45q0 4 16 16
q34 26 40 26z" />
    <glyph glyph-name="sadmedialarabic" unicode="&#x635;" horiz-adv-x="987" arabic-form="medial" 
d="M515 163q0 -40 43 -62t126 -22q105 0 166.5 37t61.5 100q0 57 -43.5 97.5t-124.5 40.5q-95 0 -162 -59.5t-67 -131.5zM-37 119q13 2 37 -6q15 -5 47 -21t66 -16q43 0 61 24.5t18 84.5q0 19 -3 40t-3 32q0 43 51 43q47 0 47 -39q0 -7 -3.5 -30t-3.5 -43q0 -80 82 -80
q19 0 33.5 8t26.5 27.5t20.5 38t24 54t28.5 61.5q42 85 115 131t169 46q118 0 182.5 -66t64.5 -168q0 -247 -384 -247q-100 0 -178 10.5t-113 22.5t-61.5 22.5t-35.5 10.5q-11 0 -22 -11t-48 -29q-40 -17 -79 -17q-38 0 -102 20q-3 1 -13 4t-17 6q-63 26 -63 45q0 4 16 16
q34 26 40 26z" />
    <glyph glyph-name="dadfinalarabic" unicode="&#x636;" horiz-adv-x="1297" arabic-form="final" 
d="M594 179l1 -16q6 -31 21 -43t53 -12q19 0 33.5 8t26.5 27.5t20.5 38t24 54t28.5 61.5q42 85 115.5 131t168.5 46q118 0 182.5 -66t64.5 -168q0 -247 -384 -247q-173 0 -291 33q-43 13 -64 23q0 -1 -2 -12.5t-5.5 -25.5t-9 -31.5t-16 -38t-23.5 -38.5q-75 -104 -251 -104
q-143 0 -215 76.5t-72 200.5q0 168 76 168q29 0 49.5 -16.5t20.5 -37.5q0 -14 -22.5 -57t-22.5 -89q0 -77 51.5 -114t138.5 -37q96 0 150 42.5t54 110.5q0 54 -25.5 107t-25.5 79q0 28 17 45t48 17q43 0 62.5 -28t22.5 -87zM988 640q0 27 15 44t45 17q36 0 48 -16t12 -45
q0 -59 -60 -59t-60 59zM825 163q0 -40 43 -62t126 -22q105 0 166.5 37t61.5 100q0 57 -43.5 97.5t-124.5 40.5q-95 0 -162 -59.5t-67 -131.5z" />
    <glyph glyph-name="dadinitialarabic" unicode="&#x636;" horiz-adv-x="1072" arabic-form="initial" 
d="M678 640q0 27 15 44t45 17q36 0 48 -16t12 -45q0 -59 -60 -59t-60 59zM515 163q0 -40 43 -62t126 -22q105 0 166.5 37t61.5 100q0 57 -43.5 97.5t-124.5 40.5q-95 0 -162 -59.5t-67 -131.5zM-37 119q13 2 37 -6q15 -5 47 -21t66 -16q43 0 61 24.5t18 84.5q0 19 -3 40
t-3 32q0 43 51 43q47 0 47 -39q0 -7 -3.5 -30t-3.5 -43q0 -80 82 -80q19 0 33.5 8t26.5 27.5t20.5 38t24 54t28.5 61.5q42 85 115 131t169 46q118 0 182.5 -66t64.5 -168q0 -247 -384 -247q-100 0 -178 10.5t-113 22.5t-61.5 22.5t-35.5 10.5q-11 0 -22 -11t-48 -29
q-40 -17 -79 -17q-38 0 -102 20q-3 1 -13 4t-17 6q-63 26 -63 45q0 4 16 16q34 26 40 26z" />
    <glyph glyph-name="dadmedialarabic" unicode="&#x636;" horiz-adv-x="987" arabic-form="medial" 
d="M678 640q0 27 15 44t45 17q36 0 48 -16t12 -45q0 -59 -60 -59t-60 59zM515 163q0 -40 43 -62t126 -22q105 0 166.5 37t61.5 100q0 57 -43.5 97.5t-124.5 40.5q-95 0 -162 -59.5t-67 -131.5zM-37 119q13 2 37 -6q15 -5 47 -21t66 -16q43 0 61 24.5t18 84.5q0 19 -3 40
t-3 32q0 43 51 43q47 0 47 -39q0 -7 -3.5 -30t-3.5 -43q0 -80 82 -80q19 0 33.5 8t26.5 27.5t20.5 38t24 54t28.5 61.5q42 85 115 131t169 46q118 0 182.5 -66t64.5 -168q0 -247 -384 -247q-100 0 -178 10.5t-113 22.5t-61.5 22.5t-35.5 10.5q-11 0 -22 -11t-48 -29
q-40 -17 -79 -17q-38 0 -102 20q-3 1 -13 4t-17 6q-63 26 -63 45q0 4 16 16q34 26 40 26z" />
    <glyph glyph-name="tahfinalarabic" unicode="&#x637;" horiz-adv-x="763" arabic-form="final" 
d="M198 87q14 215 14 335q0 28 -5 124t-5 100q0 25 14.5 39.5t41.5 14.5q53 0 53 -44q0 -8 -9 -133t-11 -192q86 143 269 143q115 0 177.5 -68t62.5 -160q0 -43 -9.5 -78t-39.5 -70.5t-79 -59.5t-133 -39t-198 -15q-49 0 -84.5 1t-78.5 3.5t-72 8t-54.5 14t-38.5 22.5
t-13 32q0 35 35 35q9 0 50 -7t78 -7q22 0 35 1zM292 163q0 -49 42.5 -66.5t136.5 -17.5q98 0 158 37t60 100q0 57 -44 97.5t-124 40.5q-95 0 -162 -59.5t-67 -131.5z" />
    <glyph glyph-name="tahinitialarabic" unicode="&#x637;" horiz-adv-x="756" arabic-form="initial" 
d="M0 113q69 -23 105 -26q14 215 14 335q0 28 -5 124t-5 100q0 25 14.5 39.5t41.5 14.5q53 0 53 -44q0 -8 -9 -133t-11 -192q86 143 269 143q115 0 177.5 -68t62.5 -160q0 -43 -9.5 -78t-39.5 -70.5t-79 -59.5t-133 -39t-198 -15q-89 2 -248 38q-4 1 -16.5 5t-16.5 5
t-14 4.5t-13.5 6t-10.5 6t-9.5 7.5t-6.5 8.5t-5 10.5t-1 13q0 35 35 35t58 -10zM199 163q0 -49 42.5 -66.5t136.5 -17.5q98 0 158 37t60 100q0 57 -44 97.5t-124 40.5q-95 0 -162 -59.5t-67 -131.5z" />
    <glyph glyph-name="tahmedialarabic" unicode="&#x637;" horiz-adv-x="670" arabic-form="medial" 
d="M0 113q69 -23 105 -26q14 215 14 335q0 28 -5 124t-5 100q0 25 14.5 39.5t41.5 14.5q53 0 53 -44q0 -8 -9 -133t-11 -192q86 143 269 143q115 0 177.5 -68t62.5 -160q0 -43 -9.5 -78t-39.5 -70.5t-79 -59.5t-133 -39t-198 -15q-89 2 -248 38q-4 1 -16.5 5t-16.5 5
t-14 4.5t-13.5 6t-10.5 6t-9.5 7.5t-6.5 8.5t-5 10.5t-1 13q0 35 35 35t58 -10zM199 163q0 -49 42.5 -66.5t136.5 -17.5q98 0 158 37t60 100q0 57 -44 97.5t-124 40.5q-95 0 -162 -59.5t-67 -131.5z" />
    <glyph glyph-name="zahfinalarabic" unicode="&#x638;" horiz-adv-x="763" arabic-form="final" 
d="M198 87q14 215 14 335q0 28 -5 124t-5 100q0 25 14.5 39.5t41.5 14.5q53 0 53 -44q0 -8 -9 -133t-11 -192q86 143 269 143q115 0 177.5 -68t62.5 -160q0 -43 -9.5 -78t-39.5 -70.5t-79 -59.5t-133 -39t-198 -15q-49 0 -84.5 1t-78.5 3.5t-72 8t-54.5 14t-38.5 22.5
t-13 32q0 35 35 35q9 0 50 -7t78 -7q22 0 35 1zM292 163q0 -49 42.5 -66.5t136.5 -17.5q98 0 158 37t60 100q0 57 -44 97.5t-124 40.5q-95 0 -162 -59.5t-67 -131.5zM455 640q0 27 15 44t45 17q36 0 48 -16t12 -45q0 -59 -60 -59t-60 59z" />
    <glyph glyph-name="zahinitialarabic" unicode="&#x638;" horiz-adv-x="756" arabic-form="initial" 
d="M362 640q0 27 15 44t45 17q36 0 48 -16t12 -45q0 -59 -60 -59t-60 59zM0 113q69 -23 105 -26q14 215 14 335q0 28 -5 124t-5 100q0 25 14.5 39.5t41.5 14.5q53 0 53 -44q0 -8 -9 -133t-11 -192q86 143 269 143q115 0 177.5 -68t62.5 -160q0 -43 -9.5 -78t-39.5 -70.5
t-79 -59.5t-133 -39t-198 -15q-89 2 -248 38q-4 1 -16.5 5t-16.5 5t-14 4.5t-13.5 6t-10.5 6t-9.5 7.5t-6.5 8.5t-5 10.5t-1 13q0 35 35 35t58 -10zM199 163q0 -49 42.5 -66.5t136.5 -17.5q98 0 158 37t60 100q0 57 -44 97.5t-124 40.5q-95 0 -162 -59.5t-67 -131.5z" />
    <glyph glyph-name="zahmedialarabic" unicode="&#x638;" horiz-adv-x="670" arabic-form="medial" 
d="M362 640q0 27 15 44t45 17q36 0 48 -16t12 -45q0 -59 -60 -59t-60 59zM0 113q69 -23 105 -26q14 215 14 335q0 28 -5 124t-5 100q0 25 14.5 39.5t41.5 14.5q53 0 53 -44q0 -8 -9 -133t-11 -192q86 143 269 143q115 0 177.5 -68t62.5 -160q0 -43 -9.5 -78t-39.5 -70.5
t-79 -59.5t-133 -39t-198 -15q-89 2 -248 38q-4 1 -16.5 5t-16.5 5t-14 4.5t-13.5 6t-10.5 6t-9.5 7.5t-6.5 8.5t-5 10.5t-1 13q0 35 35 35t58 -10zM199 163q0 -49 42.5 -66.5t136.5 -17.5q98 0 158 37t60 100q0 57 -44 97.5t-124 40.5q-95 0 -162 -59.5t-67 -131.5z" />
    <glyph glyph-name="ainfinalarabic" unicode="&#x639;" horiz-adv-x="561" arabic-form="final" 
d="M276 140q-1 1 -27 23t-42 40t-33 51t-17 66q0 64 64.5 109t179.5 45q93 0 142.5 -36t49.5 -119q0 -91 -111 -220q-38 -44 -94 -57q-12 -2 -45.5 -8.5t-47 -9.5t-43 -10t-43 -13t-36 -15.5t-33 -20t-22.5 -25t-17 -32.5t-5 -39q0 -53 37.5 -90t108.5 -37q54 0 101 27
t72 27t39.5 -20t14.5 -44q0 -51 -56.5 -75t-141.5 -24q-133 0 -202 71t-69 168q0 57 17 101.5t48.5 72.5t65 45t75.5 29q63 19 70 20zM396 154q38 0 70 50t32 95q0 74 -118 74q-123 0 -123 -65q0 -39 47 -96.5t92 -57.5z" />
    <glyph glyph-name="aininitialarabic" unicode="&#x639;" horiz-adv-x="628" arabic-form="initial" 
d="M233 72q-59 59 -59 146q0 83 53 140t148 57q31 0 64.5 -6.5t62.5 -26t29 -47.5q0 -18 -8.5 -27.5t-16 -10.5t-8.5 0q-11 0 -44.5 9.5t-71.5 9.5q-52 0 -82 -31t-30 -79q0 -58 42 -90.5t95 -32.5q37 0 73 11.5t59 11.5q40 0 40 -34q0 -29 -27.5 -48t-80 -27.5t-100.5 -11
t-116 -2.5q-140 0 -255 39q-52 17 -85 42q-8 6 -8 14q0 12 16 28.5t30 16.5q10 0 47 -10q2 0 27 -9t38 -12t40.5 -9t59 -8.5t68.5 -2.5z" />
    <glyph glyph-name="ainmedialarabic" unicode="&#x639;" horiz-adv-x="489" arabic-form="medial" 
d="M0 22q-26 7 -60.5 24t-32.5 33q0 3 15 14q35 26 43 26q17 0 35 -6q4 -1 30.5 -12.5t60 -18.5t78.5 -7q47 0 85.5 9t38.5 28q0 13 -21.5 33t-46.5 41t-46.5 57.5t-21.5 76.5q0 64 64.5 109t179.5 45q93 0 142.5 -36t49.5 -119q0 -46 -29 -102.5t-82 -109.5
q-36 -35 -84 -63q-45 -27 -105 -44q-55 -16 -90 -16q-78 -1 -203 38zM396 154q38 0 70 50t32 95q0 74 -118 74q-123 0 -123 -65q0 -39 47 -96.5t92 -57.5z" />
    <glyph glyph-name="ghainfinalarabic" unicode="&#x63a;" horiz-adv-x="561" arabic-form="final" 
d="M276 140q-1 1 -27 23t-42 40t-33 51t-17 66q0 64 64.5 109t179.5 45q93 0 142.5 -36t49.5 -119q0 -91 -111 -220q-38 -44 -94 -57q-12 -2 -45.5 -8.5t-47 -9.5t-43 -10t-43 -13t-36 -15.5t-33 -20t-22.5 -25t-17 -32.5t-5 -39q0 -53 37.5 -90t108.5 -37q54 0 101 27
t72 27t39.5 -20t14.5 -44q0 -51 -56.5 -75t-141.5 -24q-133 0 -202 71t-69 168q0 57 17 101.5t48.5 72.5t65 45t75.5 29q63 19 70 20zM341 625q0 27 15 44t45 17q36 0 48 -16t12 -45q0 -59 -60 -59t-60 59zM396 154q38 0 70 50t32 95q0 74 -118 74q-123 0 -123 -65
q0 -39 47 -96.5t92 -57.5z" />
    <glyph glyph-name="ghaininitialarabic" unicode="&#x63a;" horiz-adv-x="628" arabic-form="initial" 
d="M315 566q0 27 15 44t45 17q36 0 48 -16t12 -45q0 -59 -60 -59t-60 59zM233 72q-59 59 -59 146q0 83 53 140t148 57q31 0 64.5 -6.5t62.5 -26t29 -47.5q0 -18 -8.5 -27.5t-16 -10.5t-8.5 0q-11 0 -44.5 9.5t-71.5 9.5q-53 0 -82.5 -30.5t-29.5 -79.5q0 -58 42 -90.5
t95 -32.5q37 0 73 11.5t59 11.5q40 0 40 -34q0 -29 -28.5 -50t-78 -32t-102.5 -15.5t-115 -4.5q-109 0 -202.5 23.5t-137.5 57.5q-8 6 -8 14q0 12 20.5 32.5t34.5 20.5q18 0 51 -11.5t89.5 -23t130.5 -11.5z" />
    <glyph glyph-name="ghainmedialarabic" unicode="&#x63a;" horiz-adv-x="489" arabic-form="medial" 
d="M341 625q0 27 15 44t45 17q36 0 48 -16t12 -45q0 -59 -60 -59t-60 59zM0 22q-26 7 -60.5 24t-32.5 33q0 3 15 14q35 26 43 26q17 0 35 -6q4 -1 30.5 -12.5t60 -18.5t78.5 -7q47 0 85.5 9t38.5 28q0 13 -21.5 33t-46.5 41t-46.5 57.5t-21.5 76.5q0 64 64.5 109t179.5 45
q93 0 142.5 -36t49.5 -119q0 -46 -29 -102.5t-82 -109.5q-36 -35 -84 -63q-45 -27 -105 -44q-55 -16 -90 -16q-78 -1 -203 38zM396 154q38 0 70 50t32 95q0 74 -118 74q-123 0 -123 -65q0 -39 47 -96.5t92 -57.5z" />
    <glyph glyph-name="fehfinalarabic" unicode="&#x641;" horiz-adv-x="954" arabic-form="final" 
d="M0 189q0 18 2.5 36t9 38t19.5 32.5t31 12.5q17 0 26 -8t9 -19q0 -10 -7 -38t-7 -54q0 -68 69.5 -93t243.5 -25q276 0 384.5 16.5t108.5 62.5q0 23 -24 23q-5 0 -43.5 -8t-71.5 -8q-84 0 -130 46t-46 120q0 101 56 159.5t142 58.5q204 0 204 -282q0 -62 -9.5 -104.5
t-37.5 -74.5t-67 -50t-110.5 -29.5t-154.5 -15t-211 -3.5q-67 0 -117 3.5t-103.5 16.5t-87.5 34.5t-56 60.5t-22 92zM655 337q0 -51 33 -81t86 -30q52 0 77.5 26t25.5 92q0 60 -31 90.5t-78 30.5q-44 0 -78.5 -33.5t-34.5 -94.5zM710 700q0 27 15 44t45 17q36 0 48 -16
t12 -45q0 -59 -60 -59t-60 59z" />
    <glyph glyph-name="fehinitialarabic" unicode="&#x641;" horiz-adv-x="641" arabic-form="initial" 
d="M323 698q0 25 15.5 41.5t42.5 16.5q57 0 57 -63q0 -53 -57 -53q-58 0 -58 58zM-93 65q0 21 26 39t40 18q2 0 6 -1.5t10 -3.5t11 -4q136 -42 262 -42q123 0 183.5 18.5t60.5 61.5q0 21 -23 21q-15 0 -55 -7t-61 -7q-80 0 -127.5 43t-47.5 123q0 99 54.5 158t143.5 59
q31 0 56.5 -5.5t54 -23t48 -47t32.5 -82t13 -123.5q0 -79 -12.5 -128t-47.5 -85.5t-98.5 -52t-163.5 -15.5q-127 0 -272 43q-93 29 -93 43zM273 338q0 -51 32 -81.5t87 -30.5q44 0 74 27.5t30 90.5q0 60 -32.5 91t-78.5 31q-47 0 -79.5 -35.5t-32.5 -92.5z" />
    <glyph glyph-name="fehmedialarabic" unicode="&#x641;" horiz-adv-x="483" arabic-form="medial" 
d="M323 698q0 25 15.5 41.5t42.5 16.5q57 0 57 -63q0 -53 -57 -53q-58 0 -58 58zM-93 65q0 21 26 39t40 18q2 0 6 -1.5t10 -3.5t11 -4q136 -42 262 -42q123 0 183.5 18.5t60.5 61.5q0 21 -23 21q-15 0 -55 -7t-61 -7q-80 0 -127.5 43t-47.5 123q0 99 54.5 158t143.5 59
q31 0 56.5 -5.5t54 -23t48 -47t32.5 -82t13 -123.5q0 -79 -12.5 -128t-47.5 -85.5t-98.5 -52t-163.5 -15.5q-127 0 -272 43q-93 29 -93 43zM273 338q0 -51 32 -81.5t87 -30.5q44 0 74 27.5t30 90.5q0 60 -32.5 91t-78.5 31q-47 0 -79.5 -35.5t-32.5 -92.5z" />
    <glyph glyph-name="qaffinalarabic" unicode="&#x642;" horiz-adv-x="676" arabic-form="final" 
d="M99 87q-7 -26 -7 -51q0 -36 20 -64q22 -29 56 -45q32 -18 83 -29q45 -9 100 -9q60 0 108 15q43 15 80 42q38 31 53 63q19 34 19 83q0 14 -6 23q-7 9 -15 9q-2 0 -17 -3q-4 -2 -12 -4l-12 -3q-7 -3 -30 -8q-36 -3 -44 -3q-38 0 -77 12q-36 14 -54 35q-21 19 -34 51
q-11 36 -11 69q0 44 14 91q19 45 43 69q26 26 62 42q40 15 79 15q15 0 47 -5q21 -4 46 -14q25 -14 42 -31q20 -20 35 -51q17 -30 24 -76q8 -33 8 -105q0 -107 -24 -179q-24 -76 -73 -125q-45 -48 -115 -73q-69 -23 -158 -23q-86 0 -151 20q-62 18 -104 57q-39 35 -57 86
q-17 53 -17 108q0 31 4 58q6 40 12 54q10 26 23 42t34 16q15 0 25 -6q18 -7 21 -11q11 -8 17 -18q5 -12 5 -17q0 -11 -8 -29l-16 -35q-4 -7 -9.5 -22t-8.5 -21zM372 662q1 12 10 21q6 9 17 15q11 4 28 4q27 0 42 -16q15 -15 15 -42q0 -22 -13 -39q-16 -16 -46 -16
q-27 0 -40 10q-16 12 -16 39q0 16 3 24zM570 195q16 22 23 38q9 23 9 57q0 31 -9 55q-10 25 -25 37q-15 15 -35 22q-17 7 -40 7q-20 0 -41 -9q-23 -6 -37 -23q-15 -14 -26 -40q-10 -23 -10 -56q0 -19 9 -46q8 -21 24 -36q15 -15 38 -22q16 -7 48 -7q23 0 38 4q19 5 34 19z
M527 600q-7 7 -11 18q-5 13 -5 26q0 26 16 42q12 16 43 16q18 0 27 -4q13 -4 18 -15q6 -6 9 -19q3 -7 3 -23q0 -13 -3 -20t-11 -18q-3 -4 -17 -10q-9 -4 -26 -4q-16 0 -24 3q-10 2 -19 8z" />
    <glyph glyph-name="qafinitialarabic" unicode="&#x642;" horiz-adv-x="641" arabic-form="initial" 
d="M255 673q0 29 14.5 47.5t45.5 18.5q24 0 39.5 -16.5t15.5 -41.5q0 -26 -14 -42t-43 -16q-58 0 -58 50zM398 681q0 25 15.5 41.5t42.5 16.5q57 0 57 -63q0 -53 -57 -53q-58 0 -58 58zM-93 65q0 21 26 39t40 18q2 0 6 -1.5t10 -3.5t11 -4q136 -42 262 -42q123 0 183.5 18.5
t60.5 61.5q0 21 -23 21q-15 0 -55 -7t-61 -7q-80 0 -127.5 43t-47.5 123q0 99 54.5 158t143.5 59q31 0 56.5 -5.5t54 -23t48 -47t32.5 -82t13 -123.5q0 -79 -12.5 -128t-47.5 -85.5t-98.5 -52t-163.5 -15.5q-127 0 -272 43q-93 29 -93 43zM273 338q0 -51 32 -81.5t87 -30.5
q44 0 74 27.5t30 90.5q0 60 -32.5 91t-78.5 31q-47 0 -79.5 -35.5t-32.5 -92.5z" />
    <glyph glyph-name="qafmedialarabic" unicode="&#x642;" horiz-adv-x="483" arabic-form="medial" 
d="M251 675q0 65 60 65q25 0 39.5 -16t14.5 -42q0 -57 -56 -57q-58 0 -58 50zM394 682q0 27 15 42.5t42 15.5q59 0 59 -63q0 -52 -59 -52q-27 0 -42 11.5t-15 45.5zM-93 65q0 21 26 39t40 18q2 0 6 -1.5t10 -3.5t11 -4q136 -42 262 -42q123 0 183.5 18.5t60.5 61.5
q0 21 -23 21q-15 0 -55 -7t-61 -7q-80 0 -127.5 43t-47.5 123q0 99 54.5 158t143.5 59q31 0 56.5 -5.5t54 -23t48 -47t32.5 -82t13 -123.5q0 -79 -12.5 -128t-47.5 -85.5t-98.5 -52t-163.5 -15.5q-127 0 -272 43q-93 29 -93 43zM273 338q0 -51 32 -81.5t87 -30.5
q44 0 74 27.5t30 90.5q0 60 -32.5 91t-78.5 31q-47 0 -79.5 -35.5t-32.5 -92.5z" />
    <glyph glyph-name="kaffinalarabic" unicode="&#x643;" horiz-adv-x="989" arabic-form="final" 
d="M0 189q0 18 2.5 36t9 38t19.5 32.5t31 12.5q17 0 26 -8t9 -19q0 -10 -7 -38t-7 -54q0 -68 69.5 -93t243.5 -25q275 0 383.5 16.5t110.5 62.5v15.5t-0.5 39.5t-0.5 64q0 81 -5.5 168t-10.5 143t-5 62q0 64 57 64q61 0 61 -76q0 -41 -5 -183l-3 -85q0 -23 -0.5 -46.5
t-1 -36.5t-0.5 -20q0 -62 -9.5 -104.5t-37.5 -74.5t-67 -50t-110.5 -29.5t-154.5 -15t-211 -3.5q-67 0 -117 3.5t-103.5 16.5t-87.5 34.5t-56 60.5t-22 92zM563 359h22q13 0 13 -23q0 -28 -39 -28q-46 0 -81 -2t-53 -4t-24 -2q-13 0 -13 21q0 18 12.5 28.5t52.5 10.5
q-38 26 -38 69q0 42 28.5 62.5t66.5 20.5q80 0 80 -43q0 -20 -16 -20q-4 0 -20 4t-31 4q-18 0 -33.5 -9t-15.5 -33q0 -56 89 -56z" />
    <glyph glyph-name="kafinitialarabic" unicode="&#x643;" horiz-adv-x="514" arabic-form="initial" 
d="M0 113q79 -36 189 -36q30 0 60 5t60 17t49 36t19 58q0 41 -30.5 68.5t-67 39.5t-67 30.5t-30.5 41.5q0 13 14.5 60.5t38.5 105t63 102t79 44.5q25 0 43 -14t18 -41q0 -33 -26 -65.5t-66.5 -78t-63.5 -95.5q64 -17 106.5 -42.5t59.5 -55.5t22 -51.5t5 -47.5
q0 -93 -81 -143.5t-213 -50.5q-56 0 -181 22q-93 28 -93 45q0 9 22.5 30.5t33.5 21.5q15 0 37 -6z" />
    <glyph glyph-name="kafmedialarabic" unicode="&#x643;" horiz-adv-x="348" arabic-form="medial" 
d="M0 113q79 -36 189 -36q30 0 60 5t60 17t49 36t19 58q0 41 -30.5 68.5t-67 39.5t-67 30.5t-30.5 41.5q0 13 14.5 60.5t38.5 105t63 102t79 44.5q25 0 43 -14t18 -41q0 -33 -26 -65.5t-66.5 -78t-63.5 -95.5q64 -17 106.5 -42.5t59.5 -55.5t22 -51.5t5 -47.5
q0 -93 -81 -143.5t-213 -50.5q-56 0 -181 22q-93 28 -93 45q0 9 22.5 30.5t33.5 21.5q15 0 37 -6z" />
    <glyph glyph-name="lamfinalarabic" unicode="&#x644;" horiz-adv-x="613" arabic-form="final" 
d="M0 76q0 168 76 168q29 0 49.5 -16.5t20.5 -37.5q0 -13 -22.5 -57.5t-22.5 -92.5q0 -74 51.5 -110.5t138.5 -36.5q109 0 167.5 49t58.5 170q0 136 -19.5 294t-19.5 198q0 52 13.5 77t56.5 25q27 0 41.5 -13.5t17.5 -28.5t3 -38q0 -72 -5.5 -229.5t-5.5 -237.5
q0 -66 -5.5 -114t-24 -97t-51 -79.5t-88.5 -50t-133 -19.5q-146 0 -221.5 77t-75.5 200z" />
    <glyph glyph-name="laminitialarabic" unicode="&#x644;" horiz-adv-x="399" arabic-form="initial" 
d="M-71 96q3 2 11 10t10.5 9t10.5 4t17 1t22 -7q79 -30 140 -30q44 0 66 11t34.5 52t12.5 123q0 81 -5.5 168t-10.5 143t-5 62q0 64 57 64q61 0 61 -76q0 -12 -5 -182.5t-5 -222.5q0 -119 -35.5 -172t-140.5 -53q-38 0 -83 5q-33 5 -81 17q-63 17 -89 35q-4 4 -4 9
q0 8 22 30z" />
    <glyph glyph-name="lammedialarabic" unicode="&#x644;" horiz-adv-x="353" arabic-form="medial" 
d="M-71 96q3 2 11 10t10.5 9t10.5 4t17 1t22 -7q79 -30 140 -30q44 0 66 11t34.5 52t12.5 123q0 81 -5.5 168t-10.5 143t-5 62q0 64 57 64q61 0 61 -76q0 -12 -5 -182.5t-5 -222.5q0 -119 -35.5 -172t-140.5 -53q-38 0 -83 5q-33 5 -81 17q-63 17 -89 35q-4 4 -4 9
q0 8 22 30z" />
    <glyph glyph-name="meemfinalarabic" unicode="&#x645;" horiz-adv-x="625" arabic-form="final" 
d="M119 -360q-33 0 -55.5 28.5t-32.5 76t-13.5 87.5t-3.5 84q0 58 17.5 100.5t43 66t52 41.5t48 38.5t26.5 46.5q23 104 82.5 157.5t142.5 53.5q96 0 154.5 -59.5t58.5 -158.5q0 -107 -61 -160.5t-146 -53.5q-56 0 -97.5 19t-65 37.5t-34.5 18.5q-55 0 -86.5 -29t-31.5 -82
q0 -54 15.5 -99.5t30.5 -79.5t15 -61q0 -40 -17.5 -56t-41.5 -16zM293 197q0 -51 36 -81t93 -30q56 0 84 34t28 78q0 45 -30.5 83.5t-90.5 38.5q-45 0 -82.5 -34t-37.5 -89z" />
    <glyph glyph-name="meeminitialarabic" unicode="&#x645;" horiz-adv-x="685" arabic-form="initial" 
d="M-37 119q15 2 37 -6q2 -1 10.5 -4t17.5 -6t25.5 -5.5t35.5 -2.5q36 0 67.5 27t44.5 80q23 103 83 157.5t142 54.5q96 0 154.5 -60.5t58.5 -158.5q0 -107 -61 -160.5t-146 -53.5q-55 0 -96 15.5t-64 31.5t-34 16q-14 0 -51 -28q-10 -7 -26 -13q-13 -6 -37 -6
q-27 0 -124 25q-10 2 -39.5 16.5t-48.5 30.5q-5 5 -5 9q0 5 14 16q32 25 42 25zM293 190q0 -51 36 -81t93 -30q56 0 84 34t28 78q0 45 -30.5 83.5t-90.5 38.5q-45 0 -82.5 -33.5t-37.5 -89.5z" />
    <glyph glyph-name="meemmedialarabic" unicode="&#x645;" horiz-adv-x="626" arabic-form="medial" 
d="M-37 119q15 2 37 -6q2 -1 10.5 -4t17.5 -6t25.5 -5.5t35.5 -2.5q36 0 67.5 27t44.5 80q23 103 83 157.5t142 54.5q96 0 154.5 -60.5t58.5 -158.5q0 -107 -61 -160.5t-146 -53.5q-55 0 -96 15.5t-64 31.5t-34 16q-14 0 -51 -28q-10 -7 -26 -13q-13 -6 -37 -6
q-27 0 -124 25q-10 2 -39.5 16.5t-48.5 30.5q-5 5 -5 9q0 5 14 16q32 25 42 25zM293 190q0 -51 36 -81t93 -30q56 0 84 34t28 78q0 45 -30.5 83.5t-90.5 38.5q-45 0 -82.5 -33.5t-37.5 -89.5z" />
    <glyph glyph-name="noonfinalarabic" unicode="&#x646;" horiz-adv-x="597" arabic-form="final" 
d="M0 76q0 168 76 168q29 0 49.5 -16.5t20.5 -37.5q0 -14 -22.5 -57t-22.5 -89q0 -77 51.5 -114t138.5 -37q96 0 150 42.5t54 110.5q0 54 -25.5 107t-25.5 79q0 28 17 45t48 17q29 0 47.5 -12.5t27 -41t11 -60t2.5 -83.5q0 -40 -7 -77.5t-28 -79t-54 -71.5t-90 -50t-131 -20
q-143 0 -215 76.5t-72 200.5zM244 476q0 27 15 44t45 17q36 0 48 -16t12 -45q0 -59 -60 -59t-60 59z" />
    <glyph glyph-name="nooninitialarabic" unicode="&#x646;" horiz-adv-x="407" arabic-form="initial" 
d="M237 542q0 27 15 44t45 17q36 0 48 -16t12 -45q0 -59 -60 -59t-60 59zM0 22q-41 11 -67 24t-26 21q0 7 21.5 29.5t34.5 22.5q21 0 37 -6q85 -30 146 -30q59 0 87 24.5t28 83.5q0 51 -10.5 98t-10.5 51q0 24 11.5 37.5t45.5 13.5q61 0 61 -63q0 -13 -5 -70.5t-5 -110.5
q0 -75 -38.5 -111t-134.5 -36q-78 0 -175 22z" />
    <glyph glyph-name="noonmedialarabic" unicode="&#x646;" horiz-adv-x="322" arabic-form="medial" 
d="M198 542q0 27 15 44t45 17q36 0 48 -16t12 -45q0 -59 -60 -59t-60 59zM-37 119q13 1 37 -6q53 -30 144 -30q97 0 97 84q0 61 -16.5 104t-16.5 53q0 39 49 39q74 0 74 -180q0 -99 -43 -143t-142 -44q-22 0 -46 3.5t-37.5 6.5t-36 9t-26.5 7q-39 12 -63 22q-30 12 -30 18
q0 12 21 34.5t35 22.5z" />
    <glyph glyph-name="hehfinalarabic" unicode="&#x647;" horiz-adv-x="445" arabic-form="final" 
d="M445 113v-91q-27 4 -75 26t-65 23q-4 0 -42.5 -15t-90.5 -15q-23 0 -48.5 6t-55 21t-49 47.5t-19.5 77.5q0 60 30.5 102.5t73.5 62t86 30.5t73.5 17t30.5 13q0 8 -8 53v2q0 27 48 27q58 0 58 -32q-14 -135 -14 -209q-1 -45 12.5 -79.5t27.5 -48t27 -18.5zM84 203
q0 -42 31 -60.5t71 -18.5q62 0 86.5 24.5t24.5 84.5q0 47 -15.5 68.5t-52.5 21.5q-60 0 -102.5 -35t-42.5 -85z" />
    <glyph glyph-name="hehinitialarabic" unicode="&#x647;" horiz-adv-x="798" arabic-form="initial" 
d="M160 83l-1 3q-41 85 -41 159q0 42 13 78.5t25.5 59.5t12.5 30q0 16 -18 26t-18 34q0 33 69 50.5t161 17.5q83 0 135 -13q139 -32 195 -100t56 -174q0 -78 -15.5 -126.5t-59 -84t-120.5 -50t-199 -14.5q-173 0 -240 12q-10 2 -115 31q-41 9 -67 25t-26 26q0 18 16.5 34
t33.5 19l10 -3q10 -3 20.5 -6t12.5 -4q59 -18 101 -27q29 -8 47 -8q12 0 12 5zM341 72q36 0 62 10t40.5 25t22.5 40t10.5 47.5t2.5 54.5q2 89 -39.5 134.5t-100.5 45.5q-54 0 -88 -48t-36 -143q-2 -166 126 -166zM543 106q42 12 67 29q66 42 67 114q1 64 -69 112
q-34 22 -70 35q15 -17 25 -38q25 -57 24 -117q-1 -56 -22 -99q-12 -22 -22 -36z" />
    <glyph glyph-name="hehmedialarabic" unicode="&#x647;" horiz-adv-x="406" arabic-form="medial" 
d="M163 -130q-22 51 -28 130q-67 1 -135 22l-29 9q-29 10 -47 21q-17 11 -17 14q0 4 6 18q2 4 7.5 9t7.5 6q2 2 8 7.5t11 7.5q7 6 18 6q12 0 35 -7l26 -10q27 -9 46 -13q26 -6 61 -6q8 85 30 142q25 65 57 101q33 43 76 64q40 22 86 22q37 0 62 -13q27 -10 49 -35
q19 -23 28 -54q11 -36 11 -73q0 -33 -6 -57q-11 -38 -15 -45q-7 -13 -21 -35q-9 -12 -21 -26q11 -11 22 -25q12 -12 23 -36t18 -47q9 -29 9 -66q0 -52 -15 -86q-14 -33 -36 -57q-22 -21 -56 -31q-29 -10 -67 -10q-42 0 -78 16q-43 18 -72 49q-32 34 -54 88zM221 100v-8v-8
q73 0 118 12q43 10 74 32q28 18 39 44q11 27 11 51q0 15 -6 39q-9 22 -18 33q-13 16 -29 24q-19 8 -40 8q-36 0 -61 -19q-31 -19 -48 -50q-18 -24 -30 -72q-10 -40 -10 -86zM223 14q5 -49 15 -84q13 -43 29 -67q20 -29 45 -44q26 -16 59 -16q11 0 35 6q15 4 30 19
q15 20 22 36q9 24 9 56q0 26 -7 43q-6 19 -20 36q-13 16 -33 25q-19 9 -50 9q-37 0 -75 -5q-37 -5 -59 -14z" />
    <glyph glyph-name="wawfinalarabic" unicode="&#x648;" horiz-adv-x="459" arabic-form="final" 
d="M143 200q0 -50 27.5 -81.5t86.5 -31.5q47 0 75 29t28 89q0 57 -30 91t-74 34q-51 0 -82 -36.5t-31 -93.5zM49 -182q0 58 76 58q100 0 167.5 35t67.5 91q0 25 -14 25q-2 0 -32.5 -12.5t-67.5 -12.5q-90 0 -139.5 51.5t-49.5 131.5q0 100 58 161t142 61q202 0 202 -307
q0 -162 -88 -250.5t-236 -88.5q-48 0 -67 14.5t-19 42.5z" />
    </font>
</defs>
</svg>
